img image001 image001 image001 image001 image001 image001 image001 image001 image001 image001 image001 image001 image001 image001 image001

Planets Sun Sun Sun
Статистика раздачи
Автор: Nickolas3434 | Размер: 3.93 ГБ | Добавлен: 05 авг 2014
Раздают: 165    Качают: 58
Скачать торрент
Скачать торрент
Описание торрента

СообщениеДобавлено: 05 авг 2014 

Информация о фильме
Название: Рыцари Сидонии
Оригинальное название: Sidonia no Kishi | Knights of Sidonia
Год выхода: 2014
Жанр: приключения, научная фантастика, меха
Режиссер: Сидзуно Кобун
Художник: Нисино Такаё
В ролях: Осака Рёта, Судзаки Ая, Тоёсаки Аки, Сакурай Такахиро, Канэмото Хисако, Китамура Эри, Охара Саяка, Цубой Томохиро, Коясу Такэхито, Арай Сатоми, Танака Ацуко, Мори Нанако, Сайто Сома, Мацумото Синобу, Судзуки Юто, Игараси Хироми

О фильме:
Далёкое будущее... Глубокий космос.
Космический корабль «Сидония» летит в бескрайней пустоте вот уже десять веков с момента гибели Солнечной системы. Огромные, почти неуязвимые, инопланетные монстры, разрушившие колыбель человечества, по-прежнему преследуют его остатки. За долгие годы бегства жизнь сильно изменилась. Клонирование, генетические модификации стали обычным делом. Нагатэ Таникадзе родился уже здесь, под толстой сверкающей бронёй обшивки, глубоко в недрах корабля. Его судьба — стать пилотом и защищать последнее пристанище человечества.

Страна: Япония
Студия: Polygon Pictures
Продолжительность: 00:24:00
Язык: Русский
Перевод: Любительский (многоголосый, закадровый) AniDub

Файл
Качество: HDTVRip
Формат: MP4
Кодек: x264
Видео: 1280x720, 23.976 fps, 1700 kbps
Звук: Аудио кодек: AAC
Аудио RUS: 48 kHz, AAC, 2 ch, 192 kbps

Релиз от:
Озвучивание: Cuba77, FruKt, Trina_D, Shina
Перевод: Daytene

01. Первый бой / First Battle
02. Звёздное небо / Starry Sky
03. Слава / Glory
04. Выбор / Choice
05. Дрейф / Adrift
06. Честь / Salute
07. Решительность / Resolve
08. Бессмертные / Undead
09. Взгляд / Gaze
10. Решение / Determination
11. Столкновение / Collision
12. Возвращение / Returning to the Ship
General
Format : MPEG-4
Format profile : Base Media
Codec ID : isom
File size : 321 MiB
Duration : 24mn 27s
Overall bit rate mode : Variable
Overall bit rate : 1 834 Kbps
Encoded date : UTC 2014-04-13 20:58:03
Tagged date : UTC 2014-04-13 20:58:03
Writing application : Yamb 2.1.0.0

Video
ID : 1
Format : AVC
Format/Info : Advanced Video Codec
Format profile : High@L4.1
Format settings, CABAC : Yes
Format settings, ReFrames : 4 frames
Codec ID : avc1
Codec ID/Info : Advanced Video Coding
Duration : 24mn 27s
Bit rate : 1 639 Kbps
Maximum bit rate : 13.2 Mbps
Width : 1 280 pixels
Height : 720 pixels
Display aspect ratio : 16:9
Frame rate mode : Constant
Frame rate : 23.976 fps
Color space : YUV
Chroma subsampling : 4:2:0
Bit depth : 8 bits
Scan type : Progressive
Bits/(Pixel*Frame) : 0.074
Stream size : 287 MiB (89%)
Title : 264
Writing library : x264 core 129 r2245+729M 1a52e03
Encoding settings : cabac=1 / ref=4 / deblock=1:1:-1 / analyse=0x3:0x113 / me=umh / subme=9 / psy=1 / fade_compensate=0.00 / psy_rd=1.00:0.00 / mixed_ref=1 / me_range=24 / chroma_me=1 / trellis=2 / 8x8dct=1 / cqm=0 / deadzone=21,11 / fast_pskip=1 / chroma_qp_offset=-2 / threads=8 / lookahead_threads=1 / sliced_threads=0 / nr=0 / decimate=1 / interlaced=0 / bluray_compat=0 / constrained_intra=0 / fgo=0 / bframes=9 / b_pyramid=2 / b_adapt=2 / b_bias=0 / direct=1 / weightb=1 / open_gop=0 / weightp=2 / keyint=240 / keyint_min=24 / scenecut=40 / intra_refresh=0 / rc=crf / mbtree=0 / crf=19.0 / qcomp=0.72 / qpmin=0 / qpmax=69 / qpstep=4 / ip_ratio=1.40 / pb_ratio=1.30 / aq=1:0.85
Encoded date : UTC 2014-04-12 06:39:51
Tagged date : UTC 2014-04-13 20:58:05
Color primaries : BT.709
Transfer characteristics : BT.709
Matrix coefficients : BT.709

Audio
ID : 2
Format : AAC
Format/Info : Advanced Audio Codec
Format profile : LC
Codec ID : 40
Duration : 24mn 26s
Bit rate mode : Variable
Bit rate : 192 Kbps
Maximum bit rate : 195 Kbps
Channel(s) : 2 channels
Channel positions : Front: L R
Sampling rate : 48.0 KHz
Compression mode : Lossy
Stream size : 33.6 MiB (10%)
Language : Russian
Encoded date : UTC 2014-04-13 20:58:04
Tagged date : UTC 2014-04-13 20:58:05



   Похожие торренты   Торрент   Размер 
В этой теме нет новых непрочитанных сообщений. Рыцари Сидонии / Sidonia no Kishi / Knights of Sidonia [01x01 из 12] (2014) HDTVRip 720p | Sub

97 | 15

556.55 МБ

В этой теме нет новых непрочитанных сообщений. Рыцари Сидонии / Sidonia no Kishi / Knights of Sidonia [01x01-10 из 12] (2014) HDTVRip 720p | Sub

24 | 25

5 ГБ

В этой теме нет новых непрочитанных сообщений. Рыцари Сидонии / Sidonia no Kishi / Knights of Sidonia [01x01-12 из 12] (2014) HDTVRip 720p | Sub

50 | 25

6.19 ГБ

В этой теме нет новых непрочитанных сообщений. Рыцари Сидонии / Sidonia no Kishi / Knights of Sidonia [01x01-04 из 12] (2014) HDTVRip 720p | Sub

14 | 10

2.23 ГБ

В этой теме нет новых непрочитанных сообщений. Рыцари Сидонии / Sidonia no Kishi / Knights of Sidonia [01x01-09 из 12] (2014) HDTVRip 720p | Sub

33 | 41

4.59 ГБ

В этой теме нет новых непрочитанных сообщений. Рыцари Сидонии / Sidonia no Kishi / Knights of Sidonia [01x01-07 из 12] (2014) HDTVRip 720p | Sub

27 | 31

3.73 ГБ

В этой теме нет новых непрочитанных сообщений. Рыцари Сидонии / Sidonia no Kishi / Knights of Sidonia [01x01-11 из 12] (2014) HDTVRip 720p | Sub

37 | 27

5.59 ГБ




Вы не можете начинать темы
Вы не можете отвечать на сообщения
Вы не можете редактировать свои сообщения
Вы не можете удалять свои сообщения
Вы не можете добавлять вложения

Перейти:  
Для Мосгорсуда, Роскомнадзора и рекламодателей: mosgorsud-torrent[собачка]yandex.ru
 Вход
ppkBB3cker v.2 © 2008-2014 @ PPK
[ Time : 0.057s | 15 Queries | GZIP : On ]

Торрент трекер RUTOR.IN, Не можете зайти на rutor.org? Какой новый адрес рутор? Какое зеркало рутор? Не работает rutor.org и зеркала? Тогда наш торрент специально для вас. Rutor.in неофициальное зеркало rutor. В случае если у Вас заблокирован rutor или вдруг Вы не можете на него зайти, то Вы без труда сможете скачать бесплатно и без рекламы последние новинки кино, игр, сериалов и прочего у нас, на Rutor.in. Не нужно использовать прокси, чтобы зайти на рутор, достаточно воспользоваться нашим ресурсом. Все новые фильмы, игры, сериалы, книги и музыка за 2013 и 2014 годы через торрент бесплатно. Скачивайте фильмы в хорошем качестве, игры для пк, xbox, playstation без регистрации. У нас вы найдете новые Зарубежные сериалы и Русские сериалы 2013, 2014, 2015 годов. Оставайтесь с нами, качайте любимые фильмы, игры, сериалы, книги и музыку.