img image001 image001 image001 image001 image001 image001 image001 image001 image001 image001 image001 image001 image001 image001 image001

Planets Sun Sun Sun
Статистика раздачи
Автор: Nickolas3434 | Размер: 1.39 ГБ | Добавлен: 07 авг 2014
Раздают: 23    Качают: 8
Скачать торрент
Скачать торрент
Описание торрента

СообщениеДобавлено: 07 авг 2014 

Информация о фильме
Название: Меч очаровательной Момо
Оригинальное название: Momo Kyun Sword
Год выхода: 2014
Жанр: комедия, фэнтези
Режиссер: Янаги Синсукэ
Художник: Сибата Тикако
В ролях: Такэтацу Аяна, Цуда Минами, Миками Сиори, Комацу Микако, Асано Масуми, Мимори Судзуко, Морикубо Сётаро, Имай Асами, Хатано Ватару, Окубо Руми, Оцубо Юка, Симода Асами, Хино Сатоси, Като Эмири, Эгава Хисао, Нагасима Юйти, Такахаси Тиаки, Суганума Хисаёси, Гинга Бандзё

О фильме:
Главной героиней этой истории является Момотаро — фем-версия известного каждому японцу персонажа местного фольклора. По сюжету демоны крадут некий артефакт, что защищает от напастей земли, в которых жила и родилась Момотаро, а вскоре после этого еще и нападение готовят. Чтобы вернуть утраченное, главная героиня отправляется в путешествие вместе со своими верными спутниками: богом-собакой Инугами, богом-обезьянкой Саругами и богом-фазаном Кадзигами.

Страна: Япония
Студия: Project No.9, Tri-Slash
Продолжительность: 00:24:00
Язык: Русский
Перевод: Любительский (двухголосый закадровый) AniDub

Файл
Качество: HDTVRip 720p
Формат: MKV
Кодек: MPEG-4 AVC
Видео: 1280x720, 23.976 fps, ~1800 kbps
Звук: Аудио кодек: AAC
Аудио RUS: 48.0 kHz, AAC, 2 ch, 320 kbps

Релиз от:
Озвучивание: Гамлетка Цезаревна, 9й Неизвестный
Перевод: Seiya Loveless
Тайминг и работа со звуком: 9й Неизвестный


01. Possession Fusion! Momokyun Sword!!
02. Demon Combination!? Onihime Is Here!
03. One for All and All for One: The Celestial Maiden Squad!?
04. Mad Dance of the Giant Boobs!? The Pine Forest of Miho!
General
Format : Matroska
Format version : Version 2
File size : 355 MiB
Duration : 23mn 42s
Overall bit rate : 2 096 Kbps
Encoded date : UTC 2014-07-17 00:28:56
Writing application : mkvmerge v4.4.0 ('Die Wiederkehr') сборка от Oct 31 2010 21:52:48
Writing library : libebml v1.0.0 + libmatroska v1.0.0
Attachment : Yes

Video
ID : 1
Format : AVC
Format/Info : Advanced Video Codec
Format profile : High@L4.0
Format settings, CABAC : Yes
Format settings, ReFrames : 6 frames
Muxing mode : Header stripping
Codec ID : V_MPEG4/ISO/AVC
Duration : 23mn 42s
Bit rate : 1 776 Kbps
Width : 1 280 pixels
Height : 720 pixels
Display aspect ratio : 16:9
Frame rate mode : Constant
Frame rate : 29.970 fps
Color space : YUV
Chroma subsampling : 4:2:0
Bit depth : 8 bits
Scan type : Progressive
Bits/(Pixel*Frame) : 0.064
Stream size : 294 MiB (83%)
Writing library : x264 core 120 r2120 0c7dab9
Encoding settings : cabac=1 / ref=6 / deblock=1:1:1 / analyse=0x3:0x113 / me=umh / subme=8 / psy=1 / psy_rd=0.40:0.00 / mixed_ref=1 / me_range=16 / chroma_me=1 / trellis=1 / 8x8dct=1 / cqm=0 / deadzone=21,11 / fast_pskip=1 / chroma_qp_offset=-2 / threads=4 / sliced_threads=0 / nr=0 / decimate=1 / interlaced=0 / bluray_compat=0 / constrained_intra=0 / bframes=3 / b_pyramid=2 / b_adapt=2 / b_bias=0 / direct=3 / weightb=1 / open_gop=0 / weightp=2 / keyint=250 / keyint_min=25 / scenecut=40 / intra_refresh=0 / rc_lookahead=50 / rc=2pass / mbtree=1 / bitrate=1776 / ratetol=1.0 / qcomp=0.60 / qpmin=0 / qpmax=69 / qpstep=4 / cplxblur=20.0 / qblur=0.5 / vbv_maxrate=3552 / vbv_bufsize=8880 / nal_hrd=none / ip_ratio=1.40 / aq=1:0.60
Default : Yes
Forced : Yes

Audio
ID : 2
Format : MPEG Audio
Format version : Version 1
Format profile : Layer 3
Mode : Joint stereo
Muxing mode : Header stripping
Codec ID : A_MPEG/L3
Codec ID/Hint : MP3
Duration : 23mn 42s
Bit rate mode : Constant
Bit rate : 320 Kbps
Channel(s) : 2 channels
Sampling rate : 48.0 KHz
Compression mode : Lossy
Stream size : 54.2 MiB (15%)
Default : Yes
Forced : No
Когда раздача ведётся путём добавления новых серий, при каждом добавлении создётся новый торрент. Чтобы начать докачку новой серии, пользователям необходимо сделать следующее:
(1) остановить скачивание,
(2) удалить старый торрент у себя из клиента (старые серии удалять не надо),
(3) скачать новый торрент и запустить его у себя в клиенте вместо старого, при этом указать клиенту путь в старую папку, куда и должно происходить скачивание новых серий.
Ваш клиент при этом должен произвести хеширование (проверку) старой папки (если не производит сам - помогите ему сделать это), и будет докачивать только те серии, которых у вас ещё нет. Старые серии при этом не удаляются, а продолжают раздаваться!
Eсли вы уже удалили старые серии, то предотвратить повторную закачку старых серий можно, отжав галочку в соответсвующих местах при запуске нового торрента. По возможности, желательно не удалять старые серии как можно дольше, чтобы релизёр не столько продолжал раздавать старые серии, а смог сконцентрироваться на новых.



   Похожие торренты   Торрент   Размер 
В этой теме нет новых непрочитанных сообщений. Меч очаровательной Момо / Momo Kyun Sword [01-03 из 12] (2014) HDTVRip 720p | AniDub

15 | 10

1.04 ГБ

В этой теме нет новых непрочитанных сообщений. Духовный меч Момо / Momo Kyun Sword [TV] [01-09 из 12] (2014) HDTVRip 720p | P

7 | 7

4.37 ГБ

В этой теме нет новых непрочитанных сообщений. Духовный меч Момо / Momo Kyun Sword [TV] [01-10 из 12] (2014) HDTVRip 720p | P

11 | 7

4.82 ГБ

В этой теме нет новых непрочитанных сообщений. Духовный меч Момо / Momo Kyun Sword [TV] [01-12 из 12] (2014) HDTVRip 720p | P

100 | 36

5.64 ГБ

В этой теме нет новых непрочитанных сообщений. Духовный меч Момо / Momo Kyun Sword [TV] [01-03 из 12] (2014) HDTVRip 720p | P

8 | 17

1.56 ГБ

В этой теме нет новых непрочитанных сообщений. Духовный меч Момо / Momo Kyun Sword [TV] [01-04 из 12] (2014) HDTVRip 720p | P

28 | 16

2.05 ГБ

В этой теме нет новых непрочитанных сообщений. Духовный меч Момо / Momo Kyun Sword [TV] [01-02 из 12] (2014) HDTVRip 720p | P

37 | 21

1.08 ГБ




Вы не можете начинать темы
Вы не можете отвечать на сообщения
Вы не можете редактировать свои сообщения
Вы не можете удалять свои сообщения
Вы не можете добавлять вложения

Перейти:  
Для Мосгорсуда, Роскомнадзора и рекламодателей: mosgorsud-torrent[собачка]yandex.ru
 Вход
ppkBB3cker v.2 © 2008-2014 @ PPK
[ Time : 2.621s | 16 Queries | GZIP : Off ]

Торрент трекер RUTOR.IN, Не можете зайти на rutor.org? Какой новый адрес рутор? Какое зеркало рутор? Не работает rutor.org и зеркала? Тогда наш торрент специально для вас. Rutor.in неофициальное зеркало rutor. В случае если у Вас заблокирован rutor или вдруг Вы не можете на него зайти, то Вы без труда сможете скачать бесплатно и без рекламы последние новинки кино, игр, сериалов и прочего у нас, на Rutor.in. Не нужно использовать прокси, чтобы зайти на рутор, достаточно воспользоваться нашим ресурсом. Все новые фильмы, игры, сериалы, книги и музыка за 2013 и 2014 годы через торрент бесплатно. Скачивайте фильмы в хорошем качестве, игры для пк, xbox, playstation без регистрации. У нас вы найдете новые Зарубежные сериалы и Русские сериалы 2013, 2014, 2015 годов. Оставайтесь с нами, качайте любимые фильмы, игры, сериалы, книги и музыку.
cron