img image001 image001 image001 image001 image001 image001 image001 image001 image001 image001 image001 image001 image001 image001 image001

Planets Sun Sun Sun
Статистика раздачи
Автор: Nickolas3434 | Размер: 7.08 ГБ | Добавлен: 10 авг 2014
Раздают: 50    Качают: 7
Скачать торрент
Скачать торрент
Описание торрента

СообщениеДобавлено: 10 авг 2014 

Наши соседи - семья Ямада / Houhokekyo Tonari no Yamada-kun

Название: Наши соседи - семья Ямада Оригинальное название: Houhokekyo Tonari no Yamada-kun
Год выхода: 1999
Жанр: Комедия, повседневность, семейный


Режиссер: Исао Такахата
В ролях: Юкидзи Асаока, Тору Масуока, Масако Араки, Наоми Уно, Хаято Исобата, Акико Яно


О фильме:
Фильм состоит из серии коротких историй, посвящённых повседневной жизни семьи Ямада. Бабушка, мама, папа, сын и дочка – самые обыкновенные люди, с узнаваемыми чертами и привычками. Несмотря на то, что в фильме отражены многие японские реалии, начиная с еды и заканчивая сказками, эти сюжеты понятны любому зрителю. Комедийные ситуации перемежаются примерами житейской мудрости, бытовые сценки сменяются фантазиями, что-то происходит в первый раз, что-то повторяется изо дня в день. Здесь нет морали и нравоучений, жизнь показана такой, какая она есть – череда будней, в которых можно увидеть особое очарование и глубину. Дизайн персонажей выполнен в подчёркнуто минималистской манере с мягкой акварельной заливкой, что не совсем обычно для большинства произведений Ghibli, но анимация сохраняет традиционно высокий для этой студии уровень. Кроме того, в фильме реализованы многие интересные художественные приёмы, как, например, стихотворные вставки с хайку Басё или смена дизайна в некоторых моментах. «Семью Ямада» можно смело назвать шедевром аниме, неподвластным ни времени, ни моде, и в характерах главных героев каждый может увидеть своих соседей – или себя. © Расселл Д. Джонс, World Art





Страна: Япония, Studio Ghibli
Продолжительность: 01:43:45
Перевод: Профессиональный многоголосый, любительский одноголосый


Качество: BDRip 1080p
Видео: MPEG-4 AVC, 7625 Кбит/с, 1920x1036, 23.976 Кбит/с
Звук: Русский (AC3, 6 ch, 448 Кбит/с), (AC3, 2 ch, 192 Кбит/с), японский (DTS, 6 ch, 1509 Кбит/с)
Субтитры: Русские


Общее
Уникальный идентификатор : 246964087960439978870246560127852272988 (0xB9CB8D9FC4D48C819B978F217880DD5C)
Полное имя : E:VideoMy.Neighbors.the.Yamadas.1999.BDRip.1080p.mkv
Формат : Matroska
Версия формата : Version 2
Размер файла : 7,08 Гбайт
Продолжительность : 1 ч. 43 м.
Общий поток : 9769 Кбит/сек
Название фильма : My Neighbors the Yamadas (1999)
Дата кодирования : UTC 2014-08-08 17:01:38
Программа кодирования : mkvmerge v7.1.0 ('Good Love') 64bit built on Jul 27 2014 13:06:55
Библиотека кодирования : libebml v1.3.0 + libmatroska v1.4.1
DURATION : 01:43:28.060000000
NUMBER_OF_FRAMES : 1100
NUMBER_OF_BYTES : 89399
_STATISTICS_WRITING_APP : mkvmerge v7.1.0 ('Good Love') 64bit built on Jul 27 2014 13:06:55
_STATISTICS_WRITING_DATE_UTC : 2014-08-08 17:01:38
_STATISTICS_TAGS : BPS DURATION NUMBER_OF_FRAMES NUMBER_OF_BYTES
Видео
Идентификатор : 1
Формат : AVC
Формат/Информация : Advanced Video Codec
Профиль формата : High@L4.1
Параметр CABAC формата : Да
Параметр ReFrames формата : 4 кадра
Идентификатор кодека : V_MPEG4/ISO/AVC
Продолжительность : 1 ч. 43 м.
Битрейт : 7625 Кбит/сек
Ширина : 1920 пикселей
Высота : 1036 пикселей
Соотношение сторон : 1,85:1
Режим частоты кадров : Постоянный
Частота кадров : 23,976 кадра/сек
Цветовое пространство : YUV
Субдискретизация насыщенности : 4:2:0
Битовая глубина : 8 бит
Тип развёртки : Прогрессивная
Бит/(Пиксели*Кадры) : 0.160
Размер потока : 5,38 Гбайт (76%)
Библиотека кодирования : x264 core 114 r1913 5fd3dce
Настройки программы : cabac=1 / ref=4 / deblock=1:-1:-1 / analyse=0x3:0x113 / me=umh / subme=9 / psy=1 / psy_rd=1.10:0.15 / mixed_ref=1 / me_range=32 / chroma_me=1 / trellis=2 / 8x8dct=1 / cqm=2 / deadzone=21,11 / fast_pskip=0 / chroma_qp_offset=-2 / threads=12 / sliced_threads=0 / nr=0 / decimate=1 / interlaced=0 / constrained_intra=0 / bframes=6 / b_pyramid=2 / b_adapt=2 / b_bias=0 / direct=3 / weightb=1 / open_gop=0 / weightp=2 / keyint=250 / keyint_min=23 / scenecut=40 / intra_refresh=0 / rc_lookahead=60 / rc=2pass / mbtree=1 / bitrate=7625 / ratetol=2.0 / qcomp=0.70 / qpmin=1 / qpmax=63 / qpstep=4 / cplxblur=20.0 / qblur=0.5 / vbv_maxrate=40000 / vbv_bufsize=30000 / nal_hrd=none / ip_ratio=1.40 / aq=1:0.90
Язык : Japanese
Default : Да
Forced : Нет
DURATION : 01:43:40.209000000
NUMBER_OF_FRAMES : 149136
NUMBER_OF_BYTES : 5928756198
_STATISTICS_WRITING_APP : mkvmerge v7.1.0 ('Good Love') 64bit built on Jul 27 2014 13:06:55
_STATISTICS_WRITING_DATE_UTC : 2014-08-08 17:01:38
_STATISTICS_TAGS : BPS DURATION NUMBER_OF_FRAMES NUMBER_OF_BYTES
Аудио #1
Идентификатор : 2
Формат : AC-3
Формат/Информация : Audio Coding 3
Расширение режима : CM (complete main)
Параметр Endianness формата : Big
Идентификатор кодека : A_AC3
Продолжительность : 1 ч. 43 м.
Вид битрейта : Постоянный
Битрейт : 448 Кбит/сек
Каналы : 6 каналов
Расположение каналов : Front: L C R, Side: L R, LFE
Частота : 48,0 КГц
Битовая глубина : 16 бит
Метод сжатия : С потерями
Размер потока : 332 Мбайт (5%)
Заголовок : MVO - RUSCICO (Студия "Сoнотек")
Язык : Russian
Default : Да
Forced : Нет
Аудио #2
Идентификатор : 3
Формат : AC-3
Формат/Информация : Audio Coding 3
Расширение режима : CM (complete main)
Параметр Endianness формата : Big
Идентификатор кодека : A_AC3
Продолжительность : 1 ч. 43 м.
Вид битрейта : Постоянный
Битрейт : 192 Кбит/сек
Каналы : 2 канала
Расположение каналов : Front: L R
Частота : 48,0 КГц
Битовая глубина : 16 бит
Метод сжатия : С потерями
Размер потока : 142 Мбайт (2%)
Заголовок : LO - Константин Трубин aka Takuto
Язык : Russian
Default : Нет
Forced : Нет
Аудио #3
Идентификатор : 4
Формат : DTS
Формат/Информация : Digital Theater Systems
Режим : 16
Параметр Endianness формата : Big
Идентификатор кодека : A_DTS
Продолжительность : 1 ч. 43 м.
Вид битрейта : Постоянный
Битрейт : 1509 Кбит/сек
Каналы : 6 каналов
Расположение каналов : Front: L C R, Side: L R, LFE
Частота : 48,0 КГц
Битовая глубина : 24 бит
Метод сжатия : С потерями
Задержка видео : 7 мс.
Размер потока : 1,09 Гбайт (15%)
Заголовок : Japanese DTS 5.1ch 1510Kbps
Язык : Japanese
Default : Нет
Forced : Нет
Текст #1
Идентификатор : 5
Формат : UTF-8
Идентификатор кодека : S_TEXT/UTF8
Идентификатор кодека/Информация : UTF-8 Plain Text
Заголовок : DVD
Язык : Russian
Default : Нет
Forced : Нет
Текст #2
Идентификатор : 6
Формат : ASS
Идентификатор кодека : S_TEXT/ASS
Идентификатор кодека/Информация : Advanced Sub Station Alpha
Метод сжатия : Без потерь
Заголовок : Константин Трубин aka Takuto
Язык : Russian
Default : Нет
Forced : Нет



   Похожие торренты   Торрент   Размер 
В этой теме нет новых непрочитанных сообщений. Ямада: Самурай Нагасама / Ямада: Самурай из Аютии / Yamada: The Samurai of Ayothaya (2010) HDRip от RG Orient Extreme | P

188 | 19

2.16 ГБ

В этой теме нет новых непрочитанных сообщений. Ямада и семь ведьм / Yamada-kun to 7-nin no Majo [01-12 из 12 + 1-2 OVA] (2015) HDTVRip 720p | AniDub

485 | 122

3.88 ГБ

В этой теме нет новых непрочитанных сообщений. Ямада: Самурай Нагасама / Yamada: The Samurai of Ayothaya / Samurai Ayothaya (2010) HDTVRip-AVC

77 | 8

2.36 ГБ

В этой теме нет новых непрочитанных сообщений. Мой сосед Тоторо / Tonari no Totoro / My Neighbor Totoro (1988) BDRip 1080p от NNNB | P, P2, A

212 | 20

5.76 ГБ

В этой теме нет новых непрочитанных сообщений. Мастак времяпрепровождения Сэки / Tonari no Seki-kun [01x01] (2014) HDTVRip 1080p | L2

38 | 2

242.82 МБ

В этой теме нет новых непрочитанных сообщений. Соседи / Neighbors (1981) BDRip 1080p | P | A

38 | 11

7.48 ГБ

В этой теме нет новых непрочитанных сообщений. Клан Сопрано / Семья Сопрано / The Sopranos [S01] (1999) BDRip от HELLYWOOD

338 | 93

14.04 ГБ




Вы не можете начинать темы
Вы не можете отвечать на сообщения
Вы не можете редактировать свои сообщения
Вы не можете удалять свои сообщения
Вы не можете добавлять вложения

Перейти:  
Для Мосгорсуда, Роскомнадзора и рекламодателей: mosgorsud-torrent[собачка]yandex.ru
 Вход
ppkBB3cker v.2 © 2008-2014 @ PPK
[ Time : 0.020s | 15 Queries | GZIP : On ]

Торрент трекер RUTOR.IN, Не можете зайти на rutor.org? Какой новый адрес рутор? Какое зеркало рутор? Не работает rutor.org и зеркала? Тогда наш торрент специально для вас. Rutor.in неофициальное зеркало rutor. В случае если у Вас заблокирован rutor или вдруг Вы не можете на него зайти, то Вы без труда сможете скачать бесплатно и без рекламы последние новинки кино, игр, сериалов и прочего у нас, на Rutor.in. Не нужно использовать прокси, чтобы зайти на рутор, достаточно воспользоваться нашим ресурсом. Все новые фильмы, игры, сериалы, книги и музыка за 2013 и 2014 годы через торрент бесплатно. Скачивайте фильмы в хорошем качестве, игры для пк, xbox, playstation без регистрации. У нас вы найдете новые Зарубежные сериалы и Русские сериалы 2013, 2014, 2015 годов. Оставайтесь с нами, качайте любимые фильмы, игры, сериалы, книги и музыку.