img image001 image001 image001 image001 image001 image001 image001 image001 image001 image001 image001 image001 image001 image001 image001

Planets Sun Sun Sun
Статистика раздачи
Автор: Nickolas3434 | Размер: 2.88 ГБ | Добавлен: 24 авг 2014
Раздают: 850    Качают: 94
Скачать торрент
Скачать торрент
Описание торрента

СообщениеДобавлено: 24 авг 2014 

Информация о фильме
Название: Поцелуй сестёр
Оригинальное название: KissXsis
Год выхода: 2008 - 2014
Жанр: комедия, эротика
Режиссер: Нава Мунэнори
В ролях: Асами Имай, Ёрико Нагата, Аяна Такэтацу, Кен Такэути, Тацуми Юйко, Огамэ Асука ...
О фильме:
Эпизоды прилагались как бонус к ограниченным эксклюзивным изданиям новых томов манги, начиная с третьего.
16-летний Кэйта Суминоэ с детства живет с двумя старшими сестрами: близняшками Ако и Рико. Вся проблема в том, что родичи они сводные, по крови не связанные, и со временем сестринские чувства Ако и Рико к милому Кэйте претерпели э-э… возрастную эволюцию. Более того, собственные отец и мать активно поощряют это стремление и настаивают, чтобы Кэйта тщательно «изучил вопрос», прежде чем сделать окончательный выбор. Разумеется, веселые сестренки только «за» и со своей стороны готовы всячески облегчить и оптимизировать процесс. Вот и пойми – то ли завидовать парню, то ли сочувствовать?
До поры до времени Кэйта спасался от близняшек в средней школе, разряжая напряжение на тренировках по легкой атлетике. Но вот пришла пора идти в старшую, и, конечно же, выбор родителей пал на школу Гакусю, которую уже посещают старшие сестры. Парень понял, что возражать бесполезно и принялся за подготовку к вступительным экзаменам и укрепление духа. Хотя крепись, не крепись, а мудрые не зря говорят, что капля камень точит, а уж две сестры – тем более!
© Hollow

Страна: Япония
Студия: FEEL
Продолжительность: 12 эп. (25 мин.)
Перевод:
Rus - люибетльский двухголосый закадровый - DJATOM & comina
Rus - люибетльский многоголосый закадровый - AniDub (MVO)


Rus (sub):(переведено 00-08)
Перевод: Ootsuki & Suxxxit-kun & Матадор & DJATOM
Редактура: Sakurachii & Obelikx
Оформление: Obelikx
(переведено 09-10)
Редактор: Endil [Ani-Panic]
Переводчик: Vadamas [Nowhere is Safe]
Переводчик: Veles [Ani-Panic]
Тайм-код/Оформление: Vii [Ani-Panic]


Файл
Кодек: XVID
Качество: DVDRip
Видео:XviD 704x396, ~1000 Кбит/сек , 29,970 кадра/сек
Аудио #1 (Rus): AC3, 192 Кбит/сек, 48,0 КГц, 2СН Язык Русский (в составе контейнера) ; Озвучка: DJATOM & comina [мужская/женская, двухголосая](озвучено 00-09)
Аудио #2 (Rus): AC3, 192 Кбит/сек, 48,0 КГц, 2СН Язык Русский (в составе контейнера) ; Озвучка : AniDub (Trina_D & NikaLenina & Pandora & Tinko & Cuba77) [4 X женская/мужская, многоголосая](озвучено 00-06)
Аудио #3 (Jpn): AC3, 192 Кбит/сек, 48,0 КГц, 2СН Язык Японский ;
Субтитры (Rus): Русские внешние,формат - ASS/SRT ;
01[ep00]. Start from Scratch
02[ep01]. Under the Same Roof
03[ep02]. Christmas Party
04[ep03]. Practice in Secret
05[ep04]. The Supreme Bliss' Hot Spring Trip
06[ep05]. Engrossed in Bewilderment
07[ep06]. Mmm! Physical Examination
08[ep07]. The Strongest Little Devil - Junior-High Student Runs Amok
09[ep08]. After All!? The Eventful Home Visit
10[ep09]. Going Mad in Youthful Sweat
11[ep10]. In That Field of View, Many Colors
12[ep11]- 06.04.2015 (скоро будет)

Общее
Полное имя : E:KissXSis OADKissXsis OAD - 00.avi
Формат : AVI
Формат/Информация : Audio Video Interleave
Размер файла : 268 Мбайт
Продолжительность : 25 м.
Общий поток : 1496 Кбит/сек
Программа кодирования : VirtualDubMod 1.5.10.3 | www.virtualdub-fr.org || (build 2550/release)
Библиотека кодирования : VirtualDubMod build 2550/release
Видео
Идентификатор : 0
Формат : MPEG-4 Visual
Профиль формата : Simple@L3
Параметр BVOP формата : Нет
Параметр QPel формата : Нет
Параметр GMC формата : Без точки перехода
Параметр матрицы формата : Default (H.263)
Идентификатор кодека : XVID
Идентификатор кодека/Подсказка : XviD
Продолжительность : 25 м.
Битрейт : 906 Кбит/сек
Ширина : 704 пикселя
Высота : 396 пикселей
Соотношение сторон : 16:9
Частота кадров : 29,970 кадров/сек
Цветовое пространство : YUV
Субдискретизация насыщенности : 4:2:0
Битовая глубина : 8 бит
Тип развёртки : Прогрессивная
Метод сжатия : С потерями
Бит/(Пиксели*Кадры) : 0.108
Размер потока : 162 Мбайт (61%)
Библиотека кодирования : XviD 61
Аудио #1
Идентификатор : 1
Формат : AC-3
Формат/Информация : Audio Coding 3
Расширение режима : CM (complete main)
Параметр Endianness формата : Big
Идентификатор кодека : 2000
Продолжительность : 24 м.
Вид битрейта : Постоянный
Битрейт : 192 Кбит/сек
Каналы : 2 канала
Расположение каналов : Front: L R
Частота : 48,0 КГц
Битовая глубина : 16 бит
Метод сжатия : С потерями
Размер потока : 33,5 Мбайт (13%)
Выравнивание : Разделение по промежуткам
Продолжительность промежутка : 34 мс. (1,03 видеокадр)
Время предзагрузки промежутка : 500 мс.
Аудио #2
Идентификатор : 2
Формат : AC-3
Формат/Информация : Audio Coding 3
Расширение режима : CM (complete main)
Параметр Endianness формата : Big
Идентификатор кодека : 2000
Продолжительность : 25 м.
Вид битрейта : Постоянный
Битрейт : 192 Кбит/сек
Каналы : 2 канала
Расположение каналов : Front: L R
Частота : 48,0 КГц
Битовая глубина : 16 бит
Метод сжатия : С потерями
Размер потока : 34,4 Мбайт (13%)
Выравнивание : Разделение по промежуткам
Продолжительность промежутка : 33 мс. (1,00 видеокадр)
Время предзагрузки промежутка : 500 мс.
Аудио #3
Идентификатор : 3
Формат : AC-3
Формат/Информация : Audio Coding 3
Расширение режима : CM (complete main)
Параметр Endianness формата : Big
Идентификатор кодека : 2000
Продолжительность : 25 м.
Вид битрейта : Постоянный
Битрейт : 192 Кбит/сек
Каналы : 2 канала
Расположение каналов : Front: L R
Частота : 48,0 КГц
Битовая глубина : 16 бит
Метод сжатия : С потерями
Размер потока : 34,4 Мбайт (13%)
Выравнивание : Соединение по промежуткам
Продолжительность промежутка : 160 мс. (4,80 видеокадров)
Время предзагрузки промежутка : 640 мс.


раздача обновилась :
1 - добавлена 11 серия
2 - новые тех данные
3 - новые скриншоты
4 - заменены сабы 10 и 11 серии на новые
раздача обновляемая, просьба все перекачать
Релиз от:



   Похожие торренты   Торрент   Размер 
В этой теме нет новых непрочитанных сообщений. Поцелуй сестёр ОВА / KissXsis (OVA) [00-09 из 11] (2008 - 2013) DVDRip от UA MAX | L2, L

11 | 11

3.34 ГБ

В этой теме нет новых непрочитанных сообщений. Поцелуй Сестёр / KissXsis [01-12] (2010) HD

29 | 24

3.77 ГБ

В этой теме нет новых непрочитанных сообщений. Поцелуй сестёр / Kiss x Sis [12 из 12] (2010) BDRip | L1

3 | 3

3.25 ГБ

В этой теме нет новых непрочитанных сообщений. Comedy Club, Выпуск 157. Бенефис Сестёр Зайцевых-2 (2008) SATRip by BigFAN

125 | 6

499.92 МБ

В этой теме нет новых непрочитанных сообщений. Поцелуй не для прессы (2008) DVDRip | Лицензия

150 | 50

1.36 ГБ

В этой теме нет новых непрочитанных сообщений. Альтернативный поцелуй / Ijigen no KISSU [1-2 из 3] (2008-2009) DVDRip

51 | 15

553.87 МБ

В этой теме нет новых непрочитанных сообщений. Альтернативный поцелуй. НОВОГОДНИЙ ВЫПУСК! / Ijigen no KISSU [3 из 4] (2008-2009) DVDRip

43 | 17

389.22 МБ




Вы не можете начинать темы
Вы не можете отвечать на сообщения
Вы не можете редактировать свои сообщения
Вы не можете удалять свои сообщения
Вы не можете добавлять вложения

Перейти:  
Для Мосгорсуда, Роскомнадзора и рекламодателей: mosgorsud-torrent[собачка]yandex.ru
 Вход
ppkBB3cker v.2 © 2008-2014 @ PPK
[ Time : 0.038s | 15 Queries | GZIP : Off ]
CGP output time : 0.021s | 5 Queries | GZIP : Off

Торрент трекер RUTOR.IN, Не можете зайти на rutor.org? Какой новый адрес рутор? Какое зеркало рутор? Не работает rutor.org и зеркала? Тогда наш торрент специально для вас. Rutor.in неофициальное зеркало rutor. В случае если у Вас заблокирован rutor или вдруг Вы не можете на него зайти, то Вы без труда сможете скачать бесплатно и без рекламы последние новинки кино, игр, сериалов и прочего у нас, на Rutor.in. Не нужно использовать прокси, чтобы зайти на рутор, достаточно воспользоваться нашим ресурсом. Все новые фильмы, игры, сериалы, книги и музыка за 2013 и 2014 годы через торрент бесплатно. Скачивайте фильмы в хорошем качестве, игры для пк, xbox, playstation без регистрации. У нас вы найдете новые Зарубежные сериалы и Русские сериалы 2013, 2014, 2015 годов. Оставайтесь с нами, качайте любимые фильмы, игры, сериалы, книги и музыку.