img image001 image001 image001 image001 image001 image001 image001 image001 image001 image001 image001 image001 image001 image001 image001

Planets Sun Sun Sun
Статистика раздачи
Автор: Nickolas3434 | Размер: 5.09 ГБ | Добавлен: 03 сен 2014
Раздают: 70    Качают: 34
Скачать торрент
Скачать торрент
Описание торрента

СообщениеДобавлено: 03 сен 2014 

Информация о фильме
Название : Академия Драконьих Наездников / Академия Драгонар
Оригинальное название : Seikoku no Dragonar / Dragonar Academy / 星刻の竜騎士
Год выхода : 2014
Жанр : Приключения, фэнтези, этти
Режиссер : Тада Сюнсукэ
Роли озвучивали : Ёсико Икута, Марина Иноуэ, Мария Исэ, Такэхито Коясу, Томоаки Маэно, Генки Муро, Аянэ Сакура, Асами Шимода, Коудзи Такахаси, Харухи Терада


Описание : Посреди могучих держав лежит небольшое горное королевство Лотремон, славное единственной в мире академией, где готовят наездников на драконах. Мало кто способен «запечатлеть» разумного зверя, вырастить его, а потом несколько лет учиться вместе, составляя идеальную боевую пару. Лучшие рыцари получают от дракона магические доспехи и оружие, заменяя собой целые армии, поэтому любая страна с готовностью оплатит недешевое обучение своих кандидатов. Юные таланты прибывают в академию Ансариван отовсюду, в том числе из враждующих земель, но Лотремон издавна считается нейтральной территорией, где запрещены боевые действия. Сильных соседей вроде империи Зефарос договоры не волнуют, но время еще не пришло…
Обычно боевая пара создается один раз, но Аш Блейк – исключение. После загадочного происшествия в детстве парень обрел способность ладить с любым драконом, а вот собственного, несмотря на знак всадника, никак не мог получить. Насмешки кончились, когда после встречи в горах Аш все же пробудил своего партнера… только им оказалась юная девушка. Обычно человеческий облик принимают старые и мудрые драконы, а тут с рождения, да еще характерец не дай бог… В общем, многие сложили два и два и поняли, что Ашу и его малышке, названной Эко, предстоят великие дела. Наивного парня тут же взяли в оборот Ребекка, лучший боец академии и председатель студсовета, и однокурсница Сильвия, местная принцесса. Первые же столкновения с врагом показали – избранник годится для дальнейшей работы. А мы и так знали, что боевой гарем спасет мир!
Страна : Япония
Производство : AT-X, C-Station, Kadokawa, Media Factory
Продолжительность : ~25 мин (12 серии)
Перевод: Любительский (двухголосый, закадровый)
Озвучивали: Андрюшка & NesTea
перевод: Hikari no Tenshi, Aero & Nika_Elrik
Автор рипа : Leopard-Raws
Файл
Формат видео : MKV
Качество : HDTVRip ([Leopard-Raws] Seikoku no Dragonar (ATX 1280x720 x264 AAC))
Видео: AVC, 1280x720 (16:9), 2084 kbps, 23.970 fps, 8bit
Аудио 1: Русский, AC3, 192 Кбит/с, 48.0 Hz, 2 ch (в составе контейнера)
Аудио 2: Японский, AC3, 192 Кбит/с, 48.0 Hz, 2 ch (в составе контейнера)
Субтитры (SRT): Русские (в составе контейнера)

01. Мальчик и его дракон
02. Связующие узы: Астральный поток
03. Беспорядки на улицах города!
04. Валькирия - Сталь и Кровь
05. Ледяная Принцесса
06. Лазурный Брионак
07. Лукка Сарлинен
08. Лунный Рык
09. Танец Дракона
10. Собрание в Фонтейне
11. Возвышение Иггдрасиля
12. Отмеченный звездой Драгонар




General
Unique ID : 204960087397509561147531244112667116085 (0x9A31E08141DA0BF0A5F7674350968235)
Complete name : E:/Torrent_2/Seikoku no Dragonar [01-12] (2014, AVC HDTVRip-720p, RUS JAP+SUB)/01. Shounen to Ryuu.mkv
Format : Matroska
Format version : Version 2
File size : 459 MiB
Duration : 25mn 27s
Overall bit rate : 2 518 Kbps
Encoded date : UTC 2014-08-25 12:25:20
Writing application : mkvmerge v5.5.0 ('Healer') built on Apr 6 2012 21:43:24
Writing library : libebml v1.2.3 + libmatroska v1.3.0
Video #1
ID : 1
Format : AVC
Format/Info : Advanced Video Codec
Format profile : High@L4.1
Format settings, CABAC : Yes
Format settings, ReFrames : 4 frames
Codec ID : V_MPEG4/ISO/AVC
Duration : 25mn 27s
Bit rate : 2 084 Kbps
Width : 1 280 pixels
Height : 720 pixels
Display aspect ratio : 16:9
Frame rate mode : Constant
Frame rate : 23.976 fps
Color space : YUV
Chroma subsampling : 4:2:0
Bit depth : 8 bits
Scan type : Progressive
Bits/(Pixel*Frame) : 0.094
Stream size : 380 MiB (83%)
Writing library : x264 core 129 r2245+729M 1a52e03
Encoding settings : cabac=1 / ref=4 / deblock=1:1:-1 / analyse=0x3:0x113 / me=umh / subme=9 / psy=1 / fade_compensate=0.00 / psy_rd=1.00:0.00 / mixed_ref=1 / me_range=24 / chroma_me=1 / trellis=2 / 8x8dct=1 / cqm=0 / deadzone=21,11 / fast_pskip=1 / chroma_qp_offset=-2 / threads=8 / lookahead_threads=1 / sliced_threads=0 / nr=0 / decimate=1 / interlaced=0 / bluray_compat=0 / constrained_intra=0 / fgo=0 / bframes=9 / b_pyramid=2 / b_adapt=2 / b_bias=0 / direct=1 / weightb=1 / open_gop=0 / weightp=2 / keyint=240 / keyint_min=24 / scenecut=40 / intra_refresh=0 / rc=crf / mbtree=0 / crf=19.0 / qcomp=0.72 / qpmin=0 / qpmax=69 / qpstep=4 / ip_ratio=1.40 / pb_ratio=1.30 / aq=1:0.85
Default : Yes
Forced : No
Color primaries : BT.709
Transfer characteristics : BT.709
Matrix coefficients : BT.709
Audio #2
ID : 2
Format : AC-3
Format/Info : Audio Coding 3
Mode extension : CM (complete main)
Format settings, Endianness : Big
Codec ID : A_AC3
Duration : 25mn 27s
Bit rate mode : Constant
Bit rate : 192 Kbps
Channel(s) : 2 channels
Channel positions : Front: L R
Sampling rate : 48.0 KHz
Bit depth : 16 bits
Compression mode : Lossy
Stream size : 35.0 MiB (8%)
Title : Андрюшка & NesTea
Language : Russian
Default : Yes
Forced : No
Audio #3
ID : 3
Format : AC-3
Format/Info : Audio Coding 3
Mode extension : CM (complete main)
Format settings, Endianness : Big
Codec ID : A_AC3
Duration : 25mn 27s
Bit rate mode : Constant
Bit rate : 192 Kbps
Channel(s) : 2 channels
Channel positions : Front: L R
Sampling rate : 48.0 KHz
Bit depth : 16 bits
Compression mode : Lossy
Stream size : 35.0 MiB (8%)
Title : Original
Language : Japanese
Default : No
Forced : No
Text #4
ID : 4
Format : UTF-8
Codec ID : S_TEXT/UTF8
Codec ID/Info : UTF-8 Plain Text
Title : Hikari no Tenshi, Aero & Nika_Elrik
Language : Russian
Default : Yes
Forced : No





   Похожие торренты   Торрент   Размер 
В этой теме нет новых непрочитанных сообщений. Академия Драконьих Наездников / Академия Драгонар / Seikoku no Dragonar / Dragonar Academy [s01] (2014) HDTVRip | L2

165 | 64

4.84 ГБ

В этой теме нет новых непрочитанных сообщений. Академия Драконьих Наездников / Seikoku no Dragonar [01-04 из 12] (2014) HDTVRip 720p

18 | 17

1.63 ГБ

В этой теме нет новых непрочитанных сообщений. Академия Драконьих Наездников / Seikoku no Dragonar[01-02 из 12] (2014) HDTVRip 720p

34 | 12

787.36 МБ

В этой теме нет новых непрочитанных сообщений. Академия Драконьих Наездников / Seikoku no Dragonar [12 из 12] (2014) BDRip | L2

8 | 1

4.9 ГБ

В этой теме нет новых непрочитанных сообщений. Академия вампиров / Vampire Academy (2014) BDRip 720p | iTunes

104 | 10

5.27 ГБ

В этой теме нет новых непрочитанных сообщений. Академия вампиров / Vampire Academy (2014) BDRip 720p | BaibaKo

997 | 314

5.28 ГБ

В этой теме нет новых непрочитанных сообщений. Полицейская академия 1-7 / Police Academy 1-7 (1984-1994) HDTVRip 720p от NOLIMITS-TEAM

56 | 33

19.24 ГБ




Вы не можете начинать темы
Вы не можете отвечать на сообщения
Вы не можете редактировать свои сообщения
Вы не можете удалять свои сообщения
Вы не можете добавлять вложения

Перейти:  
Для Мосгорсуда, Роскомнадзора и рекламодателей: mosgorsud-torrent[собачка]yandex.ru
 Вход
ppkBB3cker v.2 © 2008-2014 @ PPK
[ Time : 0.052s | 17 Queries | GZIP : Off ]

Торрент трекер RUTOR.IN, Не можете зайти на rutor.org? Какой новый адрес рутор? Какое зеркало рутор? Не работает rutor.org и зеркала? Тогда наш торрент специально для вас. Rutor.in неофициальное зеркало rutor. В случае если у Вас заблокирован rutor или вдруг Вы не можете на него зайти, то Вы без труда сможете скачать бесплатно и без рекламы последние новинки кино, игр, сериалов и прочего у нас, на Rutor.in. Не нужно использовать прокси, чтобы зайти на рутор, достаточно воспользоваться нашим ресурсом. Все новые фильмы, игры, сериалы, книги и музыка за 2013 и 2014 годы через торрент бесплатно. Скачивайте фильмы в хорошем качестве, игры для пк, xbox, playstation без регистрации. У нас вы найдете новые Зарубежные сериалы и Русские сериалы 2013, 2014, 2015 годов. Оставайтесь с нами, качайте любимые фильмы, игры, сериалы, книги и музыку.
cron