img image001 image001 image001 image001 image001 image001 image001 image001 image001 image001 image001 image001 image001 image001 image001

Planets Sun Sun Sun
Статистика раздачи
Автор: Nickolas3434 | Размер: 7.76 ГБ | Добавлен: 06 сен 2014
Раздают: 111    Качают: 15
Скачать торрент
Скачать торрент
Описание торрента

СообщениеДобавлено: 06 сен 2014 


#77
Информация о фильме
    Русское название: Акира
    Оригинальное название: Akira
    Год выхода: 1988
    Жанр: Фантастика, боевик, триллер, детектив
    Режиссер: Кацухиро Отомо
    Выпущено: Япония
    Продолжительность: 02:04:28
    Перевод: Профессиональный (Многоголосый закадровый), Одноголосый закадровый (С. Рябов, А. Толстобров)
    В ролях: Мицуо Ивата, Нозому Сасаки, Мами Кояма, Тэссё Гэнда, Хироси Отакэ, Койти Китамура, Michihiro Ikemizu, Юрико Футидзаки, Masaaki Фkura, Таро Аракава


Сюжет фильма
    Спустя 31 год после Третьей мировой войны и ядерной бомбардировки столицы Японии, воссоздан новый город - Нью Токио.
    Внешне все под контролем, однако, организация страны теперь напоминает профашистское государство, жесточайшим образом подавляющая попытки мятежа. В исследовательских центрах проводятся парапсихологические опыты над людьми для разработки совершенного вида оружия.
    Военные, в лице полковника Сикисима, руководителя проекта биологических военных экспериментов, входят в конфликт с политическим крылом правительства. А в стране возникает религиозный культ сверхчеловека по имени Акира, приход которого, якобы, может решить все проблемы Японии.


Файл
    Качество: BDRip 1080p (исходник Blu-ray Disc Remux)
    Видео: 1888x1016, 7140 Кбит/сек, 23,976 кадр/сек, AVC, x264, High@L4.1, 1.85:1, 0.155 Бит/[Пиксели*Кадры]
    Аудио 1: AC-3, 448 Кбит/сек, 6 канала(ов), 48,0 КГц - Многоголосый закадровый, Киномания / Русский
    Аудио 2: AC-3, 448 Кбит/сек, 6 канала(ов), 48,0 КГц - Одноголосый закадровый, С. Рябов / Русский
    Аудио 3: AC-3, 448 Кбит/сек, 6 канала(ов), 48,0 КГц - Одноголосый закадровый, А. Толстобров / Русский
    Аудио 4: AC-3, 448 Кбит/сек, 6 канала(ов), 48,0 КГц - Оригинал / Японский
    Субтитры: Русские | Полные, Английские | Полные
    Форсированные субтитры: Нет
    Чаптеры (Главы): Есть



Автор Рипа: Сообщество:



Format : Matroska
Format version : Version 2
File size : 7.76 GiB
Duration : 2h 4mn
Overall bit rate : 8 925 Kbps
Movie name : Акира.(1988).BDRip.1080p.[envy]
Encoded date : UTC 2014-09-04 16:13:45
Writing application : mkvmerge v5.8.0 ('No Sleep / Pillow') built on Sep 2 2012 15:37:04
Writing library : libebml v1.2.3 + libmatroska v1.3.0
Video
ID : 1
Format : AVC
Format/Info : Advanced Video Codec
Format profile : High@L4.1
Format settings, CABAC : Yes
Format settings, ReFrames : 4 frames
Codec ID : V_MPEG4/ISO/AVC
Duration : 2h 4mn
Bit rate : 7 140 Kbps
Width : 1 888 pixels
Height : 1 016 pixels
Display aspect ratio : 1.85:1
Frame rate mode : Constant
Frame rate : 23.976 fps
Color space : YUV
Chroma subsampling : 4:2:0
Bit depth : 8 bits
Scan type : Progressive
Bits/(Pixel*Frame) : 0.155
Stream size : 6.05 GiB (78%)
Title : Акира.(1988).BDRip.1080p.[envy]
Writing library : x264 core 142 r2453 ea0ca51
Encoding settings : cabac=1 / ref=4 / deblock=1:0:0 / analyse=0x3:0x113 / me=umh / subme=11 / psy=1 / psy_rd=1.00:0.00 / mixed_ref=1 / me_range=32 / chroma_me=1 / trellis=2 / 8x8dct=1 / cqm=0 / deadzone=21,11 / fast_pskip=0 / chroma_qp_offset=-2 / threads=12 / lookahead_threads=1 / sliced_threads=0 / nr=0 / decimate=1 / interlaced=0 / bluray_compat=0 / constrained_intra=0 / bframes=6 / b_pyramid=2 / b_adapt=2 / b_bias=0 / direct=3 / weightb=1 / open_gop=0 / weightp=2 / keyint=240 / keyint_min=23 / scenecut=40 / intra_refresh=0 / rc=2pass / mbtree=0 / bitrate=7140 / ratetol=2.0 / qcomp=0.60 / qpmin=0 / qpmax=69 / qpstep=4 / cplxblur=20.0 / qblur=0.5 / ip_ratio=1.40 / pb_ratio=1.30 / aq=2:1.00
Language : English
Default : Yes
Forced : No
Audio #1
ID : 2
Format : AC-3
Format/Info : Audio Coding 3
Mode extension : CM (complete main)
Format settings, Endianness : Big
Codec ID : A_AC3
Duration : 2h 4mn
Bit rate mode : Constant
Bit rate : 448 Kbps
Channel(s) : 6 channels
Channel positions : Front: L C R, Side: L R, LFE
Sampling rate : 48.0 KHz
Bit depth : 16 bits
Compression mode : Lossy
Stream size : 399 MiB (5%)
Title : Kinomanija
Language : Russian
Default : Yes
Forced : No
Audio #2
ID : 3
Format : AC-3
Format/Info : Audio Coding 3
Mode extension : CM (complete main)
Format settings, Endianness : Big
Codec ID : A_AC3
Duration : 2h 4mn
Bit rate mode : Constant
Bit rate : 448 Kbps
Channel(s) : 6 channels
Channel positions : Front: L C R, Side: L R, LFE
Sampling rate : 48.0 KHz
Bit depth : 16 bits
Compression mode : Lossy
Stream size : 399 MiB (5%)
Title : Rjabov
Language : Russian
Default : No
Forced : No
Audio #3
ID : 4
Format : AC-3
Format/Info : Audio Coding 3
Mode extension : CM (complete main)
Format settings, Endianness : Big
Codec ID : A_AC3
Duration : 2h 4mn
Bit rate mode : Constant
Bit rate : 448 Kbps
Channel(s) : 6 channels
Channel positions : Front: L C R, Side: L R, LFE
Sampling rate : 48.0 KHz
Bit depth : 16 bits
Compression mode : Lossy
Stream size : 399 MiB (5%)
Title : Tolstobrov
Language : Russian
Default : No
Forced : No
Audio #4
ID : 5
Format : AC-3
Format/Info : Audio Coding 3
Mode extension : CM (complete main)
Format settings, Endianness : Big
Codec ID : A_AC3
Duration : 2h 4mn
Bit rate mode : Constant
Bit rate : 448 Kbps
Channel(s) : 6 channels
Channel positions : Front: L C R, Side: L R, LFE
Sampling rate : 48.0 KHz
Bit depth : 16 bits
Compression mode : Lossy
Stream size : 399 MiB (5%)
Title : Jpn
Language : Japanese
Default : No
Forced : No
Text #1
ID : 6
Format : UTF-8
Codec ID : S_TEXT/UTF8
Codec ID/Info : UTF-8 Plain Text
Title : full
Language : Russian
Default : No
Forced : No
Text #2
ID : 7
Format : UTF-8
Codec ID : S_TEXT/UTF8
Codec ID/Info : UTF-8 Plain Text
Title : full
Language : English
Default : No
Forced : No
Menu
00:00:00.000 : :Chapter 01
00:03:04.308 : :Chapter 02
00:05:25.283 : :Chapter 03
00:06:58.668 : :Chapter 04
00:10:33.506 : :Chapter 05
00:12:11.730 : :Chapter 06
00:16:53.887 : :Chapter 07
00:20:37.444 : :Chapter 08
00:23:45.340 : :Chapter 09
00:26:44.686 : :Chapter 10
00:29:10.081 : :Chapter 11
00:32:10.511 : :Chapter 12
00:35:21.577 : :Chapter 13
00:38:14.250 : :Chapter 14
00:41:23.147 : :Chapter 15
00:45:05.702 : :Chapter 16
00:47:40.107 : :Chapter 17
00:53:16.484 : :Chapter 18
00:57:16.850 : :Chapter 19
01:02:32.206 : :Chapter 20
01:05:30.176 : :Chapter 21
01:08:36.403 : :Chapter 22
01:11:11.058 : :Chapter 23
01:14:30.466 : :Chapter 24
01:18:12.270 : :Chapter 25
01:21:31.428 : :Chapter 26
01:25:57.485 : :Chapter 27
01:30:47.358 : :Chapter 28
01:36:05.509 : :Chapter 29
01:39:38.805 : :Chapter 30
01:41:54.900 : :Chapter 31
01:45:42.336 : :Chapter 32
01:49:21.680 : :Chapter 33
01:52:23.695 : :Chapter 34
01:56:06.960 : :Chapter 35
01:58:25.014 : :Chapter 36


#77
За исходник, и аудио дорожки, спасибо: hdclub



   Похожие торренты   Торрент   Размер 
В этой теме нет новых непрочитанных сообщений. Акира / Akira (1988) BDRip 720p | P, A

32 | 8

7.09 ГБ

В этой теме нет новых непрочитанных сообщений. Большой бизнес / Big Business (1988) BDRip 1080p от NNNB | D,P,A

62 | 32

7.95 ГБ

В этой теме нет новых непрочитанных сообщений. Я достану тебя, ублюдок / I'm Gonna Git You Sucka (1988) BDRip 1080p от NNNB | P, P2

18 | 3

6.75 ГБ

В этой теме нет новых непрочитанных сообщений. Клоуны-убийцы из космоса / Killer Klowns from Outer Space (1988) BDRip 1080p от NNNB | A

131 | 14

7.75 ГБ

В этой теме нет новых непрочитанных сообщений. Мой сосед Тоторо / Tonari no Totoro / My Neighbor Totoro (1988) BDRip 1080p от NNNB | P, P2, A

212 | 20

5.76 ГБ

В этой теме нет новых непрочитанных сообщений. Котенок с улицы Лизюкова (1988) BDRip 720p от NNNB | 60 fps

154 | 8

389.8 МБ

В этой теме нет новых непрочитанных сообщений. Успеть до полуночи / Midnight Run (1988) BDRip 720p от NNNB | P,A

31 | 7

10.3 ГБ




Вы не можете начинать темы
Вы не можете отвечать на сообщения
Вы не можете редактировать свои сообщения
Вы не можете удалять свои сообщения
Вы не можете добавлять вложения

Перейти:  
Для Мосгорсуда, Роскомнадзора и рекламодателей: mosgorsud-torrent[собачка]yandex.ru
 Вход
ppkBB3cker v.2 © 2008-2014 @ PPK
[ Time : 0.046s | 17 Queries | GZIP : Off ]

Торрент трекер RUTOR.IN, Не можете зайти на rutor.org? Какой новый адрес рутор? Какое зеркало рутор? Не работает rutor.org и зеркала? Тогда наш торрент специально для вас. Rutor.in неофициальное зеркало rutor. В случае если у Вас заблокирован rutor или вдруг Вы не можете на него зайти, то Вы без труда сможете скачать бесплатно и без рекламы последние новинки кино, игр, сериалов и прочего у нас, на Rutor.in. Не нужно использовать прокси, чтобы зайти на рутор, достаточно воспользоваться нашим ресурсом. Все новые фильмы, игры, сериалы, книги и музыка за 2013 и 2014 годы через торрент бесплатно. Скачивайте фильмы в хорошем качестве, игры для пк, xbox, playstation без регистрации. У нас вы найдете новые Зарубежные сериалы и Русские сериалы 2013, 2014, 2015 годов. Оставайтесь с нами, качайте любимые фильмы, игры, сериалы, книги и музыку.