img image001 image001 image001 image001 image001 image001 image001 image001 image001 image001 image001 image001 image001 image001 image001

Planets Sun Sun Sun
Статистика раздачи
Автор: Nickolas3434 | Размер: 669.21 МБ | Добавлен: 08 сен 2014
Раздают: 131    Качают: 8
Скачать торрент
Скачать торрент
Описание торрента

СообщениеДобавлено: 08 сен 2014 

Информация о фильме
Название: Терраформирование
Оригинальное название: Terra Formars OVA / テラフォーマーズ OVA
Страна: Япония
Год выхода: 2014
Жанр: приключения, фантастика
Режиссер: Хамасаки Хироси / Hamasaki Hiroshi / 浜崎博嗣
Автор оригинала: Сасуга Ю / Sasuga Yuu / 貴家悠
Снято по манге: Terra Formars
О фильме: Перенаселение планеты Земля является глобальной проблемой для всего человечества. С каждым годом людей становится все больше, а Земля в размерах не увеличивается и ученые стали искать выход, который был очевиден. Нужно было найти новую планету, пригодную для жизни, на которой можно бы было разместить колонию поселения и спокойно осваивать новые территории. Объектом стал Марс. Четвертая планета от солнца, безжизненная красная пустыня, где люди не могли существовать. Но все-таки ученые нашли выход.
500 лет назад была запущена программа "Терраформирование". В нее входил ряд экспериментов над самыми обычными тараканами. Они были отправлены на Марс, чтобы посмотреть, как температура и радиация повлияют на их существование. Посланные группы людей увидели, что результат был ужасным. Тараканы мутировали в огромных существ, которые обладали высокой силой и низким интеллектом. Хотя, возможно, это просто пришельцы? В любом случае, к людям они относятся с жестокостью и не являются ли они новой угрозой человечеству?
Бонусы к эксклюзивным ограниченным изданиям 10 и 11 томов манги соответственно. Дата выхода 1-го эпизода - 20.08.2014, 2-го - 19.11.2014.

Студия:
Продолжительность: OVA (2 эп.), 25 мин.
Перевод: Любительский (двухголосый)
Озвучка: Тимиркан Сиюхов & Маргарита Щелкунова
Субтитры: отсутствуют
Хардсаб: есть (логотип)
Файл
Качество: DVDRip
Формат: MKV
Видео: 720 x 408 (16:9) at 23.976 fps, AVC (x264), High@L3.0, 3500 Kbps avg, 0.497 bit/pixel
Звук:
Аудио #1 RUS - 48.0 kHz, AC3, 2 ch, 192 kbps avg
Аудио #2 JAP - 48.0 kHz, AC3, 2 ch, 192 kbps avg
Перевод на русский: перевод: Anku; редактор: mutagenb | Рип: Loster01 | Семпл
Релиз от: Ani-mania
Общее
Полное имя : [Ani-Mania]_Terra_Formars_[OVA]_[rus_jap]_[720x408_x264][Ani-Mania]_Terra_Formars_[OVA]_[01]_[rus_jap]_[720x408_x264].mkv
Формат : Matroska
Размер файла : 669 Мбайт
Продолжительность : 24 м.
Общий поток : 3887 Кбит/сек
Название фильма : Ani-Mania
Дата кодирования : UTC 2014-08-31 08:33:14
Программа кодирования : mkvmerge v7.1.0 ('Good Love') 64bit built on Jul 27 2014 13:06:55
Библиотека кодирования : libebml v1.3.0 + libmatroska v1.4.1
Видео
Идентификатор : 1
Формат : AVC
Формат/Информация : Advanced Video Codec
Профиль формата : High@L3.0
Параметр CABAC формата : Да
Параметр ReFrames формата : 4 кадры
Параметры GOP формата : M=1, N=8
Идентификатор кодека : V_MPEG4/ISO/AVC
Продолжительность : 24 м.
Битрейт : 3500 Кбит/сек
Ширина : 720 пикс.
Высота : 408 пикс.
Соотношение сторон : 16:9
Частота кадров : 23,976 кадр/сек
Цветовое пространство : YUV
Подвыборка цветности : 4:2:0
Битовая глубина : 8 бит
Тип развёртки : Прогрессивная
Бит/(Пиксели*Кадры) : 0.497
Размер потока : 590 Мбайт (88%)
Заголовок : Ani-Mania
Библиотека кодирования : x264 core 130 r2273 b3065e6
Настройки программы : cabac=1 / ref=1 / deblock=1:-1:-1 / analyse=0x3:0x113 / me=hex / subme=2 / psy=1 / psy_rd=1.00:0.10 / mixed_ref=0 / me_range=16 / chroma_me=1 / trellis=0 / 8x8dct=1 / cqm=0 / deadzone=21,11 / fast_pskip=1 / chroma_qp_offset=0 / threads=12 / lookahead_threads=3 / sliced_threads=0 / nr=0 / decimate=1 / interlaced=0 / bluray_compat=0 / constrained_intra=0 / bframes=3 / b_pyramid=2 / b_adapt=1 / b_bias=0 / direct=3 / weightb=1 / open_gop=0 / weightp=1 / keyint=250 / keyint_min=23 / scenecut=40 / intra_refresh=0 / rc_lookahead=10 / rc=2pass / mbtree=1 / bitrate=3500 / ratetol=1.0 / qcomp=0.60 / qpmin=0 / qpmax=69 / qpstep=4 / cplxblur=20.0 / qblur=0.5 / ip_ratio=1.40 / aq=1:1.00
Язык : Japanese
Аудио #1
Идентификатор : 2
Формат : AC-3
Формат/Информация : Audio Coding 3
Расширение режима : CM (complete main)
Идентификатор кодека : A_AC3
Продолжительность : 24 м.
Вид битрейта : Постоянный
Битрейт : 192 Кбит/сек
Канал(ы) : 2 канала(ов)
Расположение каналов : Front: L R
Частота : 48,0 КГц
Битовая глубина : 16 бит
Метод сжатия : С потерями
Размер потока : 33,1 Мбайт (5%)
Заголовок : Тимркан Сиюхов и Маргарита Щелкунова
Язык : Russian
Аудио #2
Идентификатор : 3
Формат : AC-3
Формат/Информация : Audio Coding 3
Расширение режима : CM (complete main)
Идентификатор кодека : A_AC3
Продолжительность : 24 м.
Вид битрейта : Постоянный
Битрейт : 192 Кбит/сек
Канал(ы) : 2 канала(ов)
Расположение каналов : Front: L R
Частота : 48,0 КГц
Битовая глубина : 16 бит
Метод сжатия : С потерями
Размер потока : 33,1 Мбайт (5%)
Язык : Japanese
01. Volume 1
02. Volume 2





   Похожие торренты   Торрент   Размер 
В этой теме нет новых непрочитанных сообщений. Терраформирование / Terra Formars [OVA] [01-02 из 02] (2014) DVDRip-AVC | L2

35 | 19

1.45 ГБ

В этой теме нет новых непрочитанных сообщений. Терраформирование ОВА / Terra Formars / Terraformars [01-02 из 02] (2014) DVDRip 720p | AniDub

21 | 8

482.43 МБ

В этой теме нет новых непрочитанных сообщений. Терраформирование / Terra Formars [TV] [01-11 из 13] (2014) HDTVRip | P2

17 | 25

4.57 ГБ

В этой теме нет новых непрочитанных сообщений. Терраформирование / Terra Formars [TV] [01-08 из 13] (2014) HDTVRip | P2

17 | 7

3.11 ГБ

В этой теме нет новых непрочитанных сообщений. Терраформирование / Terra Formars [TV] [01-10 из 13] (2014) HDTVRip | P2

26 | 19

4.11 ГБ

В этой теме нет новых непрочитанных сообщений. Терраформирование / Terra Formars / Terraformars [TV] [01 из 13] (2014) HDTVRip | L2

29 | 12

573.37 МБ

В этой теме нет новых непрочитанных сообщений. Терраформирование / Terra Formars / Terraformars [TV] [01 из 13] (2014) HDTVRip | P2

2 | 60

245.93 МБ




Вы не можете начинать темы
Вы не можете отвечать на сообщения
Вы не можете редактировать свои сообщения
Вы не можете удалять свои сообщения
Вы не можете добавлять вложения

Перейти:  
Для Мосгорсуда, Роскомнадзора и рекламодателей: mosgorsud-torrent[собачка]yandex.ru
 Вход
ppkBB3cker v.2 © 2008-2014 @ PPK
[ Time : 0.528s | 15 Queries | GZIP : Off ]

Торрент трекер RUTOR.IN, Не можете зайти на rutor.org? Какой новый адрес рутор? Какое зеркало рутор? Не работает rutor.org и зеркала? Тогда наш торрент специально для вас. Rutor.in неофициальное зеркало rutor. В случае если у Вас заблокирован rutor или вдруг Вы не можете на него зайти, то Вы без труда сможете скачать бесплатно и без рекламы последние новинки кино, игр, сериалов и прочего у нас, на Rutor.in. Не нужно использовать прокси, чтобы зайти на рутор, достаточно воспользоваться нашим ресурсом. Все новые фильмы, игры, сериалы, книги и музыка за 2013 и 2014 годы через торрент бесплатно. Скачивайте фильмы в хорошем качестве, игры для пк, xbox, playstation без регистрации. У нас вы найдете новые Зарубежные сериалы и Русские сериалы 2013, 2014, 2015 годов. Оставайтесь с нами, качайте любимые фильмы, игры, сериалы, книги и музыку.