img image001 image001 image001 image001 image001 image001 image001 image001 image001 image001 image001 image001 image001 image001 image001

Planets Sun Sun Sun
Статистика раздачи
Автор: Nickolas3434 | Размер: 5.04 ГБ | Добавлен: 08 сен 2014
Раздают: 24    Качают: 4
Скачать торрент
Скачать торрент
Описание торрента

СообщениеДобавлено: 08 сен 2014 


Информация о фильме
Название : АКБ0048
Оригинальное название : AKB0048
Год выхода : 2012
Жанр : Приключения, музыкальный
Режиссер : Кавамори Сёдзи
Роли озвучивали : Моника Риал, Савако Хата, Харука Ишида, Карен Ивата, Мао Мита, Саяка Накая, Сумире Сато, Амина Сато, Маю Ватанабэ, Куми Ягами


Описание : После очередной мировой войны человечество потеряло родную планету и оказалось разбросано по космосу. Большинство колоний стали сырьевыми придатками, жители которых должны круглосуточно вкалывать на новых хозяев жизни. Чтобы работники не распускались, на большинстве планет Галактического Альянса введен драконовский закон «О запрете развлечений». Нельзя собираться вместе, петь, плясать, вообще публично радоваться. Нарушителей карают как полицейские, так и армейские силы. Но вся Галактика знает партизан шоу-бизнеса, террористов любви, прекрасных борцов с тоской и грустью — подпольную девичью группу AKB0048, что ведет родословную от легендарной поп-группы XXI века!
На вершине нового движения — лучшие артистки, принявшие имена идолов «той самой» АКВ48, чуть ниже — продюсеры и стажеры, далее ученицы, прибывающие отовсюду. Разумеется, у группы есть мощное военно-техническое прикрытие — ведь каждый концерт на запретных мирах превращается в войсковую операцию. Впрочем, Оринэ, Юка и Нагиса — обычные девчонки с шахтерской планеты — не знали таких подробностей, но все равно примкнули к АКВ при первом удобном случае, ибо тоже хотят песней и музыкой бороться с теми, кто поработил человечество. Сила в правде, а правда в том, что тоска и уныние — смертный грех!
Страна : Япония
Производство : AKB0048 Production Committee, GANSIS, Satelight, Starchild Records
Продолжительность : ~25 мин (13 серии)
Перевод: Любительский одноголосый закадровый
Озвучивали: Kin
Субтитры: akihabara48
Автор релиза : negaushi
Файл
Формат видео : MP4
Качество : HDTVRip
Видео: AVC, 1280x720 (16:9), 1972 kbps, 23.970 fps, 8bit
Аудио 1: Русский, AAC LC, 192 Кбит/с, 48.0 Hz, 2 ch (в составе контейнера)
Аудио 2: Японский, AAC LC, 192 Кбит/с, 48.0 Hz, 2 ch (в составе контейнера)
Субтитры (ASS): Русские (внешними файлами)

Аниме-сериал, вдохновлённый известной японской музыкальной группой . Аниме было создано студией Satelight, первый сезон транслировался с апреля по июль 2012 года, второй сезон с января по март 2013 года. Сериал является рекламой AKB48.
01. Нестираемые мечты
02. Избранный свет
03. Выбор звёздной пыли
04. Твои усилия не предадут
05. Выходные
06. Первое рукопожатие
07. Наследник-кирара
08. Кому принадлежит имя?
09. Эмоциональные отношения
10. Чудеса волн
11. Возвращение на Ланкастар
12. Идол, который поёт о любви
13. Ради улыбок



General
Complete name : E:/Torrent_2/AKB0048/[Zero-Raws]_AKB0048_-_[01_of_13]_[720p]_[Kin].mp4
Format : MPEG-4
Format profile : Base Media
Codec ID : isom
File size : 404 MiB
Duration : 24mn 0s
Overall bit rate mode : Variable
Overall bit rate : 2 356 Kbps
Encoded date : UTC 2012-07-12 11:38:33
Tagged date : UTC 2012-07-12 11:38:33
Writing application : Yamb 2.1.0.0 [http://yamb.unite-video.com]
Video #1
ID : 1
Format : AVC
Format/Info : Advanced Video Codec
Format profile : High@L4.1
Format settings, CABAC : Yes
Format settings, ReFrames : 4 frames
Codec ID : avc1
Codec ID/Info : Advanced Video Coding
Duration : 24mn 0s
Bit rate mode : Variable
Bit rate : 1 972 Kbps
Maximum bit rate : 31.2 Mbps
Width : 1 280 pixels
Height : 720 pixels
Display aspect ratio : 16:9
Frame rate mode : Constant
Frame rate : 23.976 fps
Color space : YUV
Chroma subsampling : 4:2:0
Bit depth : 8 bits
Scan type : Progressive
Bits/(Pixel*Frame) : 0.089
Stream size : 339 MiB (84%)
Writing library : x264 core 120 r2120 0c7dab9
Encoding settings : cabac=1 / ref=3 / deblock=1:-2:-2 / analyse=0x3:0x113 / me=umh / subme=9 / psy=1 / psy_rd=1.00:0.00 / mixed_ref=1 / me_range=32 / chroma_me=1 / trellis=2 / 8x8dct=1 / cqm=0 / deadzone=21,11 / fast_pskip=1 / chroma_qp_offset=-2 / threads=6 / sliced_threads=0 / nr=0 / decimate=0 / interlaced=0 / bluray_compat=0 / constrained_intra=0 / bframes=3 / b_pyramid=2 / b_adapt=2 / b_bias=0 / direct=3 / weightb=1 / open_gop=0 / weightp=2 / keyint=250 / keyint_min=1 / scenecut=40 / intra_refresh=0 / rc_lookahead=40 / rc=crf / mbtree=1 / crf=20.0 / qcomp=0.60 / qpmin=0 / qpmax=69 / qpstep=8 / vbv_maxrate=31250 / vbv_bufsize=31250 / crf_max=0.0 / nal_hrd=vbr / ip_ratio=1.40 / aq=1:1.00
Encoded date : UTC 2012-05-01 13:29:14
Tagged date : UTC 2012-07-12 11:38:52
Matrix coefficients : BT.709
Audio #2
ID : 2
Format : AAC
Format/Info : Advanced Audio Codec
Format profile : LC
Codec ID : 40
Duration : 23mn 59s
Bit rate mode : Variable
Bit rate : 192 Kbps
Maximum bit rate : 202 Kbps
Channel(s) : 2 channels
Channel positions : Front: L R
Sampling rate : 44.1 KHz
Compression mode : Lossy
Stream size : 32.5 MiB (8%)
Title : Kin
Language : Russian
Encoded date : UTC 2012-07-12 11:38:39
Tagged date : UTC 2012-07-12 11:38:52
Audio #3
ID : 3
Format : AAC
Format/Info : Advanced Audio Codec
Format profile : LC
Codec ID : 67
Duration : 24mn 0s
Bit rate mode : Variable
Bit rate : 192 Kbps
Maximum bit rate : 197 Kbps
Channel(s) : 2 channels
Channel positions : Front: L R
Sampling rate : 48.0 KHz
Compression mode : Lossy
Stream size : 32.4 MiB (8%)
Title : original
Language : Japanese
Encoded date : UTC 2012-07-12 11:38:41
Tagged date : UTC 2012-07-12 11:38:52





   Похожие торренты   Торрент   Размер 
В этой теме нет новых непрочитанных сообщений. АКБ0048 / AKB0048 Next Stage [s02] (2013) HDTVRip-720p | L1

16 | 7

7.23 ГБ

В этой теме нет новых непрочитанных сообщений. OST - АКБ0048 / AKB0048 (2012 - 2013) MP3

13 | 2

496.56 МБ

В этой теме нет новых непрочитанных сообщений. АКБ0048 / AKB0048 [s01] (2012) BDRip-1080p | L1

8 | 5

13.27 ГБ

В этой теме нет новых непрочитанных сообщений. АКБ0048 / AKB0048 [s01] (2012) BDRip от Stranik 2.0 | L1

4 | 5

4.36 ГБ

В этой теме нет новых непрочитанных сообщений. АКБ0048 / AKB0048 Next Stage [s02] (2013) BDRip от Stranik 2.0 | L1

5 | 5

4.28 ГБ

В этой теме нет новых непрочитанных сообщений. АКБ0048 / AKB0048 Next Stage [s02] (2013) BDRip-1080p (Hi10P) | L1

5 | 4

13.64 ГБ

В этой теме нет новых непрочитанных сообщений. Евровидение 2012. Финал / Eurovision Song Contest 2012. Final (2012) HDTVRip 720p

0 | 2

4.21 ГБ




Вы не можете начинать темы
Вы не можете отвечать на сообщения
Вы не можете редактировать свои сообщения
Вы не можете удалять свои сообщения
Вы не можете добавлять вложения

Перейти:  
Для Мосгорсуда, Роскомнадзора и рекламодателей: mosgorsud-torrent[собачка]yandex.ru
 Вход
ppkBB3cker v.2 © 2008-2014 @ PPK
[ Time : 0.046s | 15 Queries | GZIP : Off ]

Торрент трекер RUTOR.IN, Не можете зайти на rutor.org? Какой новый адрес рутор? Какое зеркало рутор? Не работает rutor.org и зеркала? Тогда наш торрент специально для вас. Rutor.in неофициальное зеркало rutor. В случае если у Вас заблокирован rutor или вдруг Вы не можете на него зайти, то Вы без труда сможете скачать бесплатно и без рекламы последние новинки кино, игр, сериалов и прочего у нас, на Rutor.in. Не нужно использовать прокси, чтобы зайти на рутор, достаточно воспользоваться нашим ресурсом. Все новые фильмы, игры, сериалы, книги и музыка за 2013 и 2014 годы через торрент бесплатно. Скачивайте фильмы в хорошем качестве, игры для пк, xbox, playstation без регистрации. У нас вы найдете новые Зарубежные сериалы и Русские сериалы 2013, 2014, 2015 годов. Оставайтесь с нами, качайте любимые фильмы, игры, сериалы, книги и музыку.