img image001 image001 image001 image001 image001 image001 image001 image001 image001 image001 image001 image001 image001 image001 image001

Planets Sun Sun Sun
Статистика раздачи
Автор: Nickolas3434 | Размер: 3.23 ГБ | Добавлен: 17 сен 2014
Раздают: 67    Качают: 5
Скачать торрент
Скачать торрент
Описание торрента

СообщениеДобавлено: 17 сен 2014 

Информация о фильме
Название: Арион
Оригинальное название: Arion
Год выхода: 1986
Жанр: Приключения, фэнтези
Режиссер: Мамору Хамацу, Ёсикадзу Ясухико
В ролях: Дайсукэ Гори, Масако Кацуки, Киёси Кобаяси, Казуе Комия, Рейко Муто, Икиро Нагаи, Накахара Сигэру, Тикао Оцука, Хиротака Судзуоки, Мики Такахаси, Хидеуки Танака, Маюми Танака, Такако Ота

О фильме:
Юного Ариона, сына богини Деметры, похищает коварный Гадес. Он привозит племянника (Деметра — сестра Зевса, Посейдона и Гадеса) в Аид и растит из него великого воина, натаскивая на всякую подземную нечисть. Скоро Арион вернется в дальний мир и начнет сражаться, пытаясь снять проклятие с матери.
Благодарность за помощь в создании рипа - Painter
Общее
Уникальный идентификатор : 210682086458623657258351230054111145222 (0x9E7FE4D7006A40FF95A5FF75FC246D06)
Полное имя : H:ФильмСделать русский переводГотовые сделаные релизыArion.1986.x264.BDRip-AVC-MediaClub.mkv
Формат : Matroska
Версия формата : Version 2
Размер файла : 3,23 Гбайт
Продолжительность : 1 ч. 59 м.
Общий поток : 3886 Кбит/сек
Название фильма : Arion (1986) BDRip-AVC =MediaClub= -[Викс]-
Дата кодирования : UTC 2014-09-15 19:16:03
Программа кодирования : mkvmerge v5.8.0 ('No Sleep / Pillow') built on Sep 2 2012 15:37:04
Библиотека кодирования : libebml v1.2.3 + libmatroska v1.3.0

Видео
Идентификатор : 1
Формат : AVC
Формат/Информация : Advanced Video Codec
Профиль формата : High@L4.1
Параметр CABAC формата : Да
Параметр ReFrames формата : 8 кадров
Идентификатор кодека : V_MPEG4/ISO/AVC
Продолжительность : 1 ч. 59 м.
Битрейт : 3500 Кбит/сек
Ширина : 1024 пикселя
Высота : 576 пикселей
Соотношение сторон : 16:9
Режим частоты кадров : Постоянный
Частота кадров : 23,976 кадра/сек
Цветовое пространство : YUV
Субдискретизация насыщенности : 4:2:0
Битовая глубина : 8 бит
Тип развёртки : Прогрессивная
Бит/(Пиксели*Кадры) : 0.247
Размер потока : 2,85 Гбайт (88%)
Библиотека кодирования : x264 core 142 r2431 ac76440
Настройки программы : cabac=1 / ref=8 / deblock=1:-2:-2 / analyse=0x3:0x113 / me=umh / subme=11 / psy=1 / psy_rd=1.00:0.20 / mixed_ref=1 / me_range=48 / chroma_me=1 / trellis=2 / 8x8dct=1 / cqm=0 / deadzone=21,11 / fast_pskip=0 / chroma_qp_offset=-3 / threads=12 / lookahead_threads=2 / sliced_threads=0 / nr=0 / decimate=0 / interlaced=0 / bluray_compat=0 / constrained_intra=0 / bframes=8 / b_pyramid=2 / b_adapt=2 / b_bias=0 / direct=3 / weightb=1 / open_gop=0 / weightp=2 / keyint=240 / keyint_min=23 / scenecut=40 / intra_refresh=0 / rc_lookahead=40 / rc=2pass / mbtree=0 / bitrate=3500 / ratetol=1.0 / qcomp=0.60 / qpmin=0 / qpmax=69 / qpstep=4 / cplxblur=20.0 / qblur=0.5 / vbv_maxrate=50000 / vbv_bufsize=52500 / nal_hrd=none / filler=0 / ip_ratio=1.40 / pb_ratio=1.30 / aq=1:0.80
Язык : Japanese
Default : Да
Forced : Нет

Аудио #1
Идентификатор : 2
Формат : AC-3
Формат/Информация : Audio Coding 3
Расширение режима : CM (complete main)
Параметр Endianness формата : Big
Идентификатор кодека : A_AC3
Продолжительность : 1 ч. 59 м.
Вид битрейта : Постоянный
Битрейт : 192 Кбит/сек
Каналы : 2 канала
Расположение каналов : Front: L R
Частота : 48,0 КГц
Битовая глубина : 16 бит
Метод сжатия : С потерями
Размер потока : 164 Мбайт (5%)
Заголовок : LO (Azazel)
Язык : Russian
Default : Да
Forced : Нет

Аудио #2
Идентификатор : 3
Формат : AC-3
Формат/Информация : Audio Coding 3
Расширение режима : CM (complete main)
Параметр Endianness формата : Big
Идентификатор кодека : A_AC3
Продолжительность : 1 ч. 59 м.
Вид битрейта : Постоянный
Битрейт : 192 Кбит/сек
Каналы : 2 канала
Расположение каналов : Front: L R
Частота : 48,0 КГц
Битовая глубина : 16 бит
Метод сжатия : С потерями
Размер потока : 164 Мбайт (5%)
Язык : Japanese
Default : Нет
Forced : Нет

Текст
Идентификатор : 4
Формат : UTF-8
Идентификатор кодека : S_TEXT/UTF8
Идентификатор кодека/Информация : UTF-8 Plain Text
Язык : Russian
Default : Нет
Forced : Нет

Меню
00:00:00.000 : :Chapter 01
00:06:00.526 : :Chapter 02
00:10:06.480 : :Chapter 03
00:15:26.425 : :Chapter 04
00:23:38.917 : :Chapter 05
00:30:19.150 : :Chapter 06
00:36:10.293 : :Chapter 07
00:43:40.576 : :Chapter 08
00:47:41.859 : :Chapter 09
00:54:57.877 : :Chapter 10
00:57:45.462 : :Chapter 11
01:01:31.354 : :Chapter 12
01:04:30.658 : :Chapter 13
01:11:46.802 : :Chapter 14
01:13:10.219 : :Chapter 15
01:18:37.879 : :Chapter 16
01:27:47.345 : :Chapter 17
01:42:20.300 : :Chapter 18
01:48:34.633 : :Chapter 19
01:53:30.804 : :Chapter 20
01:59:08.141 : :Chapter 21


Страна: Япония
Студия: Bandai Visual Co. Ltd., Nippon Sunrise, Sunrise Inc., Tokuma Shoten
Продолжительность: 01:59:09
Перевод: Любительский одноголосый (Azazel)

Файл
Кодек: x264
Качество: BDRip-AVC
Видео: MPEG-4 AVC, 3500 Кбит/с, 1024x576, 23.976 кадр/с
Звук:
Аудио #1: Русский (AC3, 2 ch, 192 Кбит/с) / Любительский одноголосый (Azazel)
Аудио #2: Японский (AC3, 2 ch, 192 Кбит/с)
Субтитры: Русские (перевод - Юрий Яворовский)

Семпл



Релиз от: Работа с аудио, рип - Викс



   Похожие торренты   Торрент   Размер 
В этой теме нет новых непрочитанных сообщений. Арион / Arion (1986) BDRip 720p от MediaClub

22 | 32

8.22 ГБ

В этой теме нет новых непрочитанных сообщений. Арион / Arion (1986) Blu-ray Remux 1080p от MediaClub

2 | 4

34.82 ГБ

В этой теме нет новых непрочитанных сообщений. Arion - А ты ( Малолетка ) (2011) MP3

30 | 2

82.89 МБ

В этой теме нет новых непрочитанных сообщений. Курьер (1986) BDRip от MediaClub | КПК

42 | 4

388.42 МБ

В этой теме нет новых непрочитанных сообщений. Муха / The Fly (1986) BDRip-AVC от MediaClub

35 | 2

4.09 ГБ

В этой теме нет новых непрочитанных сообщений. Вамп / Vamp (1986) BDRip-AVC от MediaClub

35 | 8

2.67 ГБ

В этой теме нет новых непрочитанных сообщений. Кочевники / Nomads (1986) BDRip от MediaClub | КПК

17 | 1

422.04 МБ




Вы не можете начинать темы
Вы не можете отвечать на сообщения
Вы не можете редактировать свои сообщения
Вы не можете удалять свои сообщения
Вы не можете добавлять вложения

Перейти:  
Для Мосгорсуда, Роскомнадзора и рекламодателей: mosgorsud-torrent[собачка]yandex.ru
 Вход
ppkBB3cker v.2 © 2008-2014 @ PPK
[ Time : 0.042s | 15 Queries | GZIP : Off ]

Торрент трекер RUTOR.IN, Не можете зайти на rutor.org? Какой новый адрес рутор? Какое зеркало рутор? Не работает rutor.org и зеркала? Тогда наш торрент специально для вас. Rutor.in неофициальное зеркало rutor. В случае если у Вас заблокирован rutor или вдруг Вы не можете на него зайти, то Вы без труда сможете скачать бесплатно и без рекламы последние новинки кино, игр, сериалов и прочего у нас, на Rutor.in. Не нужно использовать прокси, чтобы зайти на рутор, достаточно воспользоваться нашим ресурсом. Все новые фильмы, игры, сериалы, книги и музыка за 2013 и 2014 годы через торрент бесплатно. Скачивайте фильмы в хорошем качестве, игры для пк, xbox, playstation без регистрации. У нас вы найдете новые Зарубежные сериалы и Русские сериалы 2013, 2014, 2015 годов. Оставайтесь с нами, качайте любимые фильмы, игры, сериалы, книги и музыку.