img image001 image001 image001 image001 image001 image001 image001 image001 image001 image001 image001 image001 image001 image001 image001

Planets Sun Sun Sun
Статистика раздачи
Автор: Nickolas3434 | Размер: 4.82 ГБ | Добавлен: 19 сен 2014
Раздают: 11    Качают: 7
Скачать торрент
Скачать торрент
Описание торрента

СообщениеДобавлено: 19 сен 2014 

Информация о фильме
Название: Духовный меч Момо
Оригинальное название: Momo Kyun Sword / モモキュンソード
Страна: Япония
Год выхода: 2014
Жанр: приключения
Режиссер: Янаги Синсукэ / Yanagi Shinsuke / 柳伸亮
О фильме: Момоко — прекрасная юная мечница, родившаяся в персике. Она живёт в мирном раю вместе со своими постоянными спутниками: псом-богом Инугами, обезьяной-богом Саругами и фазаном-богом Кидзигами. Но однажды армия демонов во главе с королём-дьяволом вторгается в рай и крадёт ценное сокровище, защищающее мир Момоко. С целью вернуть упомянутое сокровище и спасти людей, Момоко решается на великое приключение с тремя своими спутниками.

Студия:

Продолжительность: ТВ (>12 эп.), 25 мин.
Перевод: Профессиональный (многоголосый закадровый)
Перевод на русский: Александр Толстухин
Перевод и озвучивание: студия "Окей"

Текст читают: Маргарита Щелкунова, Маргарита Подсухина, Тимиркан Сиюхов, Роман Аксенов

Субтитры: отсутствуют
Хардсаб: отсутствует

Файл
Качество: HDTVRip [Leopard-Raws]
Формат: MP4
Видео: 1280 x 720 (16:9) at 23.976 fps, AVC (x264), High@L3.0, 2882 Kbps avg, 0.130 bit/pixel, 8 bit
Аудио: 48.0 kHz, AAC, 2 ch, 256 kbps avg

Общее
Полное имя : [Ani-Mania]_Momo_Kyun_Sword_[rus]_[1280x720_x264]_[MVO][Ani-Mania]_Momo_Kyun_Sword_[01]_[rus]_[1280x720_x264]_[MVO].mp4
Формат : MPEG-4
Профиль формата : Base Media
Идентификатор кодека : isom
Размер файла : 543 Мбайт
Продолжительность : 24 м.
Общий поток : 3142 Кбит/сек
Дата кодирования : UTC 2014-07-10 15:39:28
Дата пометки : UTC 2014-07-10 15:39:28
Программа кодирования : Yamb 2.1.0.0 [http://yamb.unite-video.com]

Видео
Идентификатор : 1
Формат : AVC
Формат/Информация : Advanced Video Codec
Профиль формата : High@L3.0
Параметр CABAC формата : Да
Параметр ReFrames формата : 4 кадры
Идентификатор кодека : avc1
Идентификатор кодека/Информация : Advanced Video Coding
Продолжительность : 24 м.
Вид битрейта : Переменный
Битрейт : 2882 Кбит/сек
Максимальный битрейт : 13,9 Мбит/сек
Ширина : 1280 пикс.
Высота : 720 пикс.
Соотношение сторон : 16:9
Режим частоты кадров : Постоянный
Частота кадров : 23,976 кадр/сек
Цветовое пространство : YUV
Подвыборка цветности : 4:2:0
Битовая глубина : 8 бит
Тип развёртки : Прогрессивная
Бит/(Пиксели*Кадры) : 0.130
Размер потока : 498 Мбайт (92%)
Библиотека кодирования : x264 core 130 r2273 b3065e6
Настройки программы : cabac=1 / ref=1 / deblock=1:0:0 / analyse=0x3:0x3 / me=dia / subme=1 / psy=1 / psy_rd=1.00:0.00 / mixed_ref=0 / me_range=16 / chroma_me=1 / trellis=0 / 8x8dct=1 / cqm=0 / deadzone=21,11 / fast_pskip=1 / chroma_qp_offset=0 / threads=12 / lookahead_threads=2 / sliced_threads=0 / nr=0 / decimate=1 / interlaced=0 / bluray_compat=0 / constrained_intra=0 / bframes=3 / b_pyramid=2 / b_adapt=1 / b_bias=0 / direct=1 / weightb=1 / open_gop=0 / weightp=1 / keyint=250 / keyint_min=23 / scenecut=40 / intra_refresh=0 / rc=crf / mbtree=0 / crf=21.0 / qcomp=0.60 / qpmin=0 / qpmax=69 / qpstep=4 / ip_ratio=1.40 / pb_ratio=1.30 / aq=1:1.00
Дата кодирования : UTC 2014-07-10 15:39:28
Дата пометки : UTC 2014-07-10 15:39:35

Аудио
Идентификатор : 2
Формат : AAC
Формат/Информация : Advanced Audio Codec
Профиль формата : LC
Идентификатор кодека : 40
Продолжительность : 24 м.
Вид битрейта : Переменный
Битрейт : 256 Кбит/сек
Максимальный битрейт : 263 Кбит/сек
Канал(ы) : 2 канала(ов)
Расположение каналов : Front: L R
Частота : 48,0 КГц
Метод сжатия : С потерями
Размер потока : 44,3 Мбайт (8%)
Язык : English
Дата кодирования : UTC 2014-07-10 15:39:35
Дата пометки : UTC 2014-07-10 15:39:35

01. Слияние души! Мечь Момоко.
02. Дьявольский план?! Онихими здесь!
03. Один за всех, и все за одного: Четверка небесных дев?!
04. Бешеный танец огромных сисек?! Сосновый лес Михо!
05. Подозрительный?! Ловушка в тумане!
06. Родилась звезда! Четверка небесных дев!
07. Потерялся?! Самая важная вещь Момоко!
08. План Персик. Исподнее пропадает в паре?!
09. Большие разработки!? Секрет Момо!
10. Шок! Онигашима наносит ответный удар!!






   Похожие торренты   Торрент   Размер 
В этой теме нет новых непрочитанных сообщений. Духовный меч Момо / Momo Kyun Sword [TV] [01-04 из 12] (2014) HDTVRip 720p | P

28 | 16

2.05 ГБ

В этой теме нет новых непрочитанных сообщений. Духовный меч Момо / Momo Kyun Sword [TV] [01-12 из 12] (2014) HDTVRip 720p | P

100 | 36

5.64 ГБ

В этой теме нет новых непрочитанных сообщений. Духовный меч Момо / Momo Kyun Sword [TV] [01-11 из 12] (2014) HDTVRip 720p | P

15 | 8

5.28 ГБ

В этой теме нет новых непрочитанных сообщений. Духовный меч Момо / Momo Kyun Sword [TV] [01-09 из 12] (2014) HDTVRip 720p | P

7 | 7

4.37 ГБ

В этой теме нет новых непрочитанных сообщений. Духовный меч Момо / Momo Kyun Sword [TV] [01-03 из 12] (2014) HDTVRip 720p | P

8 | 17

1.56 ГБ

В этой теме нет новых непрочитанных сообщений. Духовный меч Момо / Momo Kyun Sword [TV] [01-02 из 12] (2014) HDTVRip 720p | P

37 | 21

1.08 ГБ

В этой теме нет новых непрочитанных сообщений. Духовный меч Момо / Momo Kyun Sword [TV] [01 из 12] (2014) HDTVRip 720p | P

44 | 11

543.15 МБ




Вы не можете начинать темы
Вы не можете отвечать на сообщения
Вы не можете редактировать свои сообщения
Вы не можете удалять свои сообщения
Вы не можете добавлять вложения

Перейти:  
Для Мосгорсуда, Роскомнадзора и рекламодателей: mosgorsud-torrent[собачка]yandex.ru
 Вход
ppkBB3cker v.2 © 2008-2014 @ PPK
[ Time : 0.050s | 16 Queries | GZIP : Off ]

Торрент трекер RUTOR.IN, Не можете зайти на rutor.org? Какой новый адрес рутор? Какое зеркало рутор? Не работает rutor.org и зеркала? Тогда наш торрент специально для вас. Rutor.in неофициальное зеркало rutor. В случае если у Вас заблокирован rutor или вдруг Вы не можете на него зайти, то Вы без труда сможете скачать бесплатно и без рекламы последние новинки кино, игр, сериалов и прочего у нас, на Rutor.in. Не нужно использовать прокси, чтобы зайти на рутор, достаточно воспользоваться нашим ресурсом. Все новые фильмы, игры, сериалы, книги и музыка за 2013 и 2014 годы через торрент бесплатно. Скачивайте фильмы в хорошем качестве, игры для пк, xbox, playstation без регистрации. У нас вы найдете новые Зарубежные сериалы и Русские сериалы 2013, 2014, 2015 годов. Оставайтесь с нами, качайте любимые фильмы, игры, сериалы, книги и музыку.
cron