img image001 image001 image001 image001 image001 image001 image001 image001 image001 image001 image001 image001 image001 image001 image001

Planets Sun Sun Sun
Статистика раздачи
Автор: Nickolas3434 | Размер: 5.77 ГБ | Добавлен: 25 сен 2014
Раздают: 87    Качают: 8
Скачать торрент
Скачать торрент
Описание торрента

СообщениеДобавлено: 25 сен 2014 


#77
Информация о фильме
    Русское название: Шепот сердца
    Оригинальное название: Mimi wo Sumaseba / Whisper of the Heart
    Год выхода: 1995
    Жанр: Драма, мелодрама
    Режиссер: Кондо Ёсифуми
    Выпущено: Япония
    Продолжительность: 01:50:50
    Перевод: Профессиональный (Многоголосый закадровый)
    В ролях: Ёко Хонна, Кацуо Такахаши, Такаши Тачибана, Шигеру Мурои, Сигеру Цуюгути, Кэйдзю Кобаяси, Йори Йамашита, Маико Каяма, Йошими Накодзима, Минами Такаяма


Сюжет фильма
    Школьница средних классов Сидзуку Цукисима обожает читать, «глотая» книги одну за другой. Однако какую бы книжку она не брала из школьной библиотеки, в формуляре прочитавших её прежде значится имя Сэйдзи Амасава. После знакомства с этим необычным пареньком, ставшем её первой любовью, Сидзуку узнаёт много нового и о себе самой, о своих целях в жизни - открытие, которое необратимо изменит её судьбу.


Файл
    Качество: BDRip 1080p (исходник Blu-ray Disc Remux)
    Видео: 1920x1036, 6552 Кбит/сек, 23,976 кадр/сек, AVC, x264, High@L4.1, 1.85:1, 0.137 Бит/[Пиксели*Кадры]
    Аудио 1: AC-3, 192 Кбит/сек, 2 канала(ов), 48,0 КГц - Многоголосый закадровый, RUSCICO / Русский
    Аудио 2: AC-3, 448 Кбит/сек, 6 канала(ов), 48,0 КГц - Оригинал / Японский
    Субтитры: Русские | Полные, Английские | Полные
    Форсированные субтитры: Нет
    Чаптеры (Главы): Есть



Автор Рипа: Сообщество:



Format : Matroska
Format version : Version 2
File size : 5.77 GiB
Duration : 1h 50mn
Overall bit rate : 7 446 Kbps
Movie name : Шепот сердца.(1995).BDRip.1080p.[envy]
Encoded date : UTC 2014-09-24 05:18:36
Writing application : mkvmerge v5.8.0 ('No Sleep / Pillow') built on Sep 2 2012 15:37:04
Writing library : libebml v1.2.3 + libmatroska v1.3.0

Video
ID : 1
Format : AVC
Format/Info : Advanced Video Codec
Format profile : High@L4.1
Format settings, CABAC : Yes
Format settings, ReFrames : 4 frames
Codec ID : V_MPEG4/ISO/AVC
Duration : 1h 50mn
Bit rate : 6 552 Kbps
Width : 1 920 pixels
Height : 1 036 pixels
Display aspect ratio : 1.85:1
Frame rate mode : Constant
Frame rate : 23.976 fps
Color space : YUV
Chroma subsampling : 4:2:0
Bit depth : 8 bits
Scan type : Progressive
Bits/(Pixel*Frame) : 0.137
Stream size : 4.96 GiB (86%)
Title : Шепот сердца.(1995).BDRip.1080p.[envy]
Writing library : x264 core 142 r2479 dd79a61
Encoding settings : cabac=1 / ref=4 / deblock=1:0:0 / analyse=0x3:0x113 / me=umh / subme=11 / psy=1 / psy_rd=1.00:0.00 / mixed_ref=1 / me_range=48 / chroma_me=1 / trellis=2 / 8x8dct=1 / cqm=0 / deadzone=21,11 / fast_pskip=0 / chroma_qp_offset=-2 / threads=12 / lookahead_threads=1 / sliced_threads=0 / nr=0 / decimate=1 / interlaced=0 / bluray_compat=0 / constrained_intra=0 / bframes=5 / b_pyramid=2 / b_adapt=2 / b_bias=0 / direct=3 / weightb=1 / open_gop=0 / weightp=2 / keyint=240 / keyint_min=23 / scenecut=40 / intra_refresh=0 / rc=2pass / mbtree=0 / bitrate=6552 / ratetol=2.0 / qcomp=0.60 / qpmin=0 / qpmax=69 / qpstep=4 / cplxblur=20.0 / qblur=0.5 / ip_ratio=1.40 / pb_ratio=1.30 / aq=2:0.90
Language : English
Default : Yes
Forced : No

Audio #1
ID : 2
Format : AC-3
Format/Info : Audio Coding 3
Mode extension : CM (complete main)
Format settings, Endianness : Big
Codec ID : A_AC3
Duration : 1h 50mn
Bit rate mode : Constant
Bit rate : 448 Kbps
Channel(s) : 6 channels
Channel positions : Front: L C R, Side: L R, LFE
Sampling rate : 48.0 KHz
Bit depth : 16 bits
Compression mode : Lossy
Stream size : 355 MiB (6%)
Title : MVO RUSCICO
Language : Russian
Default : Yes
Forced : No

Audio #2
ID : 3
Format : AC-3
Format/Info : Audio Coding 3
Mode extension : CM (complete main)
Format settings, Endianness : Big
Codec ID : A_AC3
Duration : 1h 50mn
Bit rate mode : Constant
Bit rate : 448 Kbps
Channel(s) : 6 channels
Channel positions : Front: L C R, Side: L R, LFE
Sampling rate : 48.0 KHz
Bit depth : 16 bits
Compression mode : Lossy
Stream size : 355 MiB (6%)
Title : Jpn
Language : Japanese
Default : No
Forced : No

Text #1
ID : 4
Format : UTF-8
Codec ID : S_TEXT/UTF8
Codec ID/Info : UTF-8 Plain Text
Title : full
Language : Russian
Default : No
Forced : No

Text #2
ID : 5
Format : UTF-8
Codec ID : S_TEXT/UTF8
Codec ID/Info : UTF-8 Plain Text
Title : full
Language : English
Default : No
Forced : No

Menu
00:00:00.000 : :Chapter 01
00:01:16.201 : :Chapter 02
00:06:29.430 : :Chapter 03
00:09:22.895 : :Chapter 04
00:10:58.074 : :Chapter 05
00:13:30.976 : :Chapter 06
00:17:40.017 : :Chapter 07
00:19:37.551 : :Chapter 08
00:24:48.320 : :Chapter 09
00:28:55.233 : :Chapter 10
00:33:05.066 : :Chapter 11
00:38:13.416 : :Chapter 12
00:40:33.139 : :Chapter 13
00:44:11.231 : :Chapter 14
00:46:59.316 : :Chapter 15
00:51:27.667 : :Chapter 16
00:57:02.168 : :Chapter 17
00:59:32.318 : :Chapter 18
01:00:53.524 : :Chapter 19
01:07:19.744 : :Chapter 20
01:11:25.656 : :Chapter 21
01:15:28.232 : :Chapter 22
01:19:25.093 : :Chapter 23
01:23:30.130 : :Chapter 24
01:25:34.462 : :Chapter 25
01:28:18.334 : :Chapter 26
01:32:39.011 : :Chapter 27
01:35:41.444 : :Chapter 28
01:38:49.715 : :Chapter 29
01:40:54.673 : :Chapter 30
01:42:58.964 : :Chapter 31



#77



   Похожие торренты   Торрент   Размер 
В этой теме нет новых непрочитанных сообщений. Шепот сердца / Whisper of the Heart / Mimi wo Sumaseba (1995) BDRip 1080p | 10 bit | P, P2, A

5 | 2

14.59 ГБ

В этой теме нет новых непрочитанных сообщений. Шепот сердца / Whisper of the Heart / Mimi wo Sumaseba (1995) BDRip 1080p | 10 bit | P, A

9 | 3

9.61 ГБ

В этой теме нет новых непрочитанных сообщений. Шепот сердца / Whisper of the Heart / Mimi wo Sumaseba (1995) HDTVRip 1080p

5 | 1

3.01 ГБ

В этой теме нет новых непрочитанных сообщений. Шепот сердца / Whisper of the Heart / Mimi wo Sumaseba (1995) BDRip-AVC | 10 bit | P, P2, A

0 | 3

3.17 ГБ

В этой теме нет новых непрочитанных сообщений. Шепот сердца / Whisper of the Heart / Mimi wo Sumaseba (1995) BDRip | P, P2

6 | 2

2.22 ГБ

В этой теме нет новых непрочитанных сообщений. Шепот сердца / Whisper of the Heart / Mimi wo Sumaseba (1995) BDRip | A

46 | 8

2.03 ГБ

В этой теме нет новых непрочитанных сообщений. Шепот сердца / Whisper of the Heart / Mimi wo Sumaseba (1995) BDRip 720p | P, P2, A

22 | 5

4.64 ГБ




Вы не можете начинать темы
Вы не можете отвечать на сообщения
Вы не можете редактировать свои сообщения
Вы не можете удалять свои сообщения
Вы не можете добавлять вложения

Перейти:  
Для Мосгорсуда, Роскомнадзора и рекламодателей: mosgorsud-torrent[собачка]yandex.ru
 Вход
ppkBB3cker v.2 © 2008-2014 @ PPK
[ Time : 0.032s | 15 Queries | GZIP : Off ]

Торрент трекер RUTOR.IN, Не можете зайти на rutor.org? Какой новый адрес рутор? Какое зеркало рутор? Не работает rutor.org и зеркала? Тогда наш торрент специально для вас. Rutor.in неофициальное зеркало rutor. В случае если у Вас заблокирован rutor или вдруг Вы не можете на него зайти, то Вы без труда сможете скачать бесплатно и без рекламы последние новинки кино, игр, сериалов и прочего у нас, на Rutor.in. Не нужно использовать прокси, чтобы зайти на рутор, достаточно воспользоваться нашим ресурсом. Все новые фильмы, игры, сериалы, книги и музыка за 2013 и 2014 годы через торрент бесплатно. Скачивайте фильмы в хорошем качестве, игры для пк, xbox, playstation без регистрации. У нас вы найдете новые Зарубежные сериалы и Русские сериалы 2013, 2014, 2015 годов. Оставайтесь с нами, качайте любимые фильмы, игры, сериалы, книги и музыку.