img image001 image001 image001 image001 image001 image001 image001 image001 image001 image001 image001 image001 image001 image001 image001

Planets Sun Sun Sun
Статистика раздачи
Автор: Nickolas3434 | Размер: 2.49 ГБ | Добавлен: 25 сен 2014
Раздают: 12    Качают: 3
Скачать торрент
Скачать торрент
Описание торрента

СообщениеДобавлено: 25 сен 2014 

Информация о фильме
Название: Мастера меча онлайн 2
Оригинальное название: Sword Art Online II / ソードアート・オンラインII
Страна: Япония
Год выхода: 2014
Жанр: приключения, фэнтези
Режиссер: Ито Томохико / Ito Tomohiko / 伊藤智彦
Автор оригинала: Кавахара Рэки / Kawahara Reki / 川原礫

О фильме: После событий первого сезона прошёл год. Кирито учится в школе для бывших узников «САО», где каждый день видится с любимой Асуной, потихоньку восстанавливает силы, веселится с друзьями. В общем, живёт той жизнью, о которой мечтал. Но, как это обычно бывает, счастье длится недолго. Как-то раз Кирито приглашает его давний знакомый, госслужащий Сэйдзиро Кикуока. Надо заметить, Кикуока в своё время серьёзно выручил Кирито, а теперь решил напомнить, что долг неплохо было бы и вернуть.
Так начинается новое приключение чёрного мечника. На сей раз ему предстоит расследовать череду загадочных убийств, за которыми стоит некий Дэс Ган, а также раскрыть тайны прошлого, распутать паутину интриг, познакомиться с новыми друзьями, съесть много вкусных кексов, опробовать себя в роли капитана Прайса из «Call of Duty» и порассуждать о бренности бытия… В общем, скучно не будет, это могу сказать наверняка.
Доставайте свои нейрошлемы, протрите их от пыли и скорее подключайте к компьютерам, ведь с минуты на минуту прозвучит заветное: «Начать подключение!»
© Evafan

Студия:

Продолжительность: ТВ (>24 эп.), 25 мин.
Перевод: Любительский (многоголосый закадровый) - (1-6); Любительский (двухголосый) - (7+)
Озвучка: loster01 & DiNaS & Emeri - (1-6); loster01 & Emeri - (7+)
Субтитры: отсутствуют
Хардсаб: отсутствует
Перевод на русский: Alvakarp (1); Sleepless Studios (2+)
Перепевка Опенинга: Harmony Team (с 6 эпизода)
Vocals: Len
Russian Lyrics: Yuki Eiri
MIX: Chocola, Trouble (SoundByGod), PrO_Gamer
Instrumental: Trouble & Мурряу (Guitars)

Файл
Качество: HDTVRip
Формат: MP4
Видео: 1280 x 720 (16:9) at 23.976 fps, AVC (x264), High@L3.0, 1142 Kbps avg, 0.052 bit/pixel, 8 bit
Аудио: 48.0 kHz, AAC, 2 ch, 192 kbps avg

Релиз от:

Общее
Полное имя : [LE-Production]_Sword_Art_Online_II_[rus]_[1280x720_x264]_[loster01_&_DiNaS_&_Emeri][LE-Production]_Sword_Art_Online_II_[01]_[rus]_[1280x720_x264]_[loster01_&_DiNaS_&_Emeri].mp4
Формат : MPEG-4
Профиль формата : Base Media
Идентификатор кодека : isom
Размер файла : 231 Мбайт
Продолжительность : 24 м.
Общий поток : 1339 Кбит/сек
Дата кодирования : UTC 2014-07-07 18:06:28
Дата пометки : UTC 2014-07-07 18:06:28
Программа кодирования : Yamb 2.1.0.0 [http://yamb.unite-video.com]

Видео
Идентификатор : 1
Формат : AVC
Формат/Информация : Advanced Video Codec
Профиль формата : High@L3.0
Параметр CABAC формата : Да
Параметр ReFrames формата : 4 кадры
Идентификатор кодека : avc1
Идентификатор кодека/Информация : Advanced Video Coding
Продолжительность : 24 м.
Вид битрейта : Переменный
Битрейт : 1142 Кбит/сек
Максимальный битрейт : 6865 Кбит/сек
Ширина : 1280 пикс.
Высота : 720 пикс.
Соотношение сторон : 16:9
Режим частоты кадров : Постоянный
Частота кадров : 23,976 кадр/сек
Цветовое пространство : YUV
Подвыборка цветности : 4:2:0
Битовая глубина : 8 бит
Тип развёртки : Прогрессивная
Бит/(Пиксели*Кадры) : 0.052
Размер потока : 197 Мбайт (85%)
Библиотека кодирования : x264 core 125 r2208 d9d2288
Настройки программы : cabac=1 / ref=2 / deblock=1:0:0 / analyse=0x3:0 / me=dia / subme=1 / psy=1 / psy_rd=1.00:0.00 / mixed_ref=1 / me_range=16 / chroma_me=1 / trellis=1 / 8x8dct=1 / cqm=0 / deadzone=21,11 / fast_pskip=1 / chroma_qp_offset=0 / threads=12 / lookahead_threads=2 / sliced_threads=0 / nr=0 / decimate=1 / interlaced=0 / bluray_compat=0 / constrained_intra=0 / bframes=3 / b_pyramid=2 / b_adapt=1 / b_bias=0 / direct=1 / weightb=1 / open_gop=0 / weightp=2 / keyint=250 / keyint_min=23 / scenecut=40 / intra_refresh=0 / rc_lookahead=40 / rc=crf / mbtree=1 / crf=21.0 / qcomp=0.60 / qpmin=0 / qpmax=69 / qpstep=4 / ip_ratio=1.40 / aq=1:1.00
Дата кодирования : UTC 2014-07-07 18:06:28
Дата пометки : UTC 2014-07-07 18:06:36

Аудио
Идентификатор : 2
Формат : AAC
Формат/Информация : Advanced Audio Codec
Профиль формата : LC
Идентификатор кодека : 40
Продолжительность : 24 м.
Вид битрейта : Переменный
Битрейт : 192 Кбит/сек
Максимальный битрейт : 390 Кбит/сек
Канал(ы) : 2 канала(ов)
Расположение каналов : Front: L R
Частота : 48,0 КГц
Метод сжатия : С потерями
Размер потока : 33,3 Мбайт (14%)
Дата кодирования : UTC 2014-07-07 18:06:33
Дата пометки : UTC 2014-07-07 18:06:36

01 - Мир Оружия
02 - Хладнокровный Снайпер
03 - Кровавые воспоминания
04 - ГГО
05 - Пистолет и клинок
06 - Схватка в пустоши
07 - Багровые воспоминания





   Похожие торренты   Торрент   Размер 
В этой теме нет новых непрочитанных сообщений. Мастера меча онлайн 2 / Sword Art Online II [TV-2] [01-02 из 24] (2014) WEBRip 720p | LE-Production

6 | 66

738.28 МБ

В этой теме нет новых непрочитанных сообщений. Мастера меча онлайн 2 / Sword Art Online II [TV-2] [01-03 из 24] (2014) WEBRip 720p | LE-Production

27 | 17

1.14 ГБ

В этой теме нет новых непрочитанных сообщений. Мастера меча онлайн II / Sword Art Online II [01-24 из 24] (2014) HDTVRip 720p | L2

54 | 23

10.16 ГБ

В этой теме нет новых непрочитанных сообщений. Мастера меча онлайн II / Sword Art Online II [01-24 из 24] (2014) HDTVRip 720p | L1

72 | 47

8.42 ГБ

В этой теме нет новых непрочитанных сообщений. Искусство Меча Онлайн: спешл / Мастера Меча Онлайн (спешл) / Sword Art Online: Extra Edition [Special] (2013) HDTVRip 720p | L1

150 | 12

1.36 ГБ

В этой теме нет новых непрочитанных сообщений. Мастера меча онлайн II / Sword Art Online II [01-24 из 24] (2014) HDTVRip 720p от AniDUB | L2

133 | 23

10.89 ГБ

В этой теме нет новых непрочитанных сообщений. Мастера меча онлайн II / Sword Art Online II [01-14.5 из 24] (2014) HDTVRip 720p от AniPlay | L2

20 | 41

5.19 ГБ




Вы не можете начинать темы
Вы не можете отвечать на сообщения
Вы не можете редактировать свои сообщения
Вы не можете удалять свои сообщения
Вы не можете добавлять вложения

Перейти:  
Для Мосгорсуда, Роскомнадзора и рекламодателей: mosgorsud-torrent[собачка]yandex.ru
 Вход
ppkBB3cker v.2 © 2008-2014 @ PPK
[ Time : 0.047s | 18 Queries | GZIP : Off ]

cron