img image001 image001 image001 image001 image001 image001 image001 image001 image001 image001 image001 image001 image001 image001 image001

Planets Sun Sun Sun
Статистика раздачи
Автор: Nickolas3434 | Размер: 5.76 ГБ | Добавлен: 01 окт 2014
Раздают: 98    Качают: 107
Скачать торрент
Скачать торрент
Описание торрента

СообщениеДобавлено: 01 окт 2014 


#77
Информация о фильме
    Русское название: Метрополис
    Оригинальное название: Metropolis / Metoroporisu
    Год выхода: 2001
    Жанр: Фантастика, боевик, триллер, драма, мелодрама, криминал, приключения
    Режиссер: Ринтаро
    Выпущено: Япония
    Продолжительность: 01:47:31
    Перевод: Дублированный, Профессиональный (Многоголосый закадровый)
    В ролях: Юка Имото, Кеи Кобаяши, Коуки Окада, Таро Ишида, Кози Томита, Норио Вакамото, Джанпей Такигучи, Такеши Аоно, Масару Икеда, Шун Ясиро


Сюжет фильма
    Многомиллионная армия роботов заменила людей на заводах и фабриках. Миром правят могущественные главы планетарных суперкорпораций. На этом фоне разворачивается история девочки-киборга, созданной гениальным ученым и обладающей точным сходством с умершей дочерью деспотичного правителя Метрополиса.
    Ей было предназначено стать ключом к власти над всем миром. Но в один роковой день она таинственно исчезает... По ее следу пускается опытный детектив и его сын, не подозревая, что тем самым они ввязываются в величайшую битву Добра и Зла, которую только видела Земля.


Файл
    Качество: BDRip 1080p (исходник Blu-ray Disc Remux)
    Видео: 1816x992, 6553 Кбит/сек, 23,976 кадр/сек, AVC, x264, High@L4.1, 1.85:1, 0.152 Бит/[Пиксели*Кадры]
    Аудио 1: AC-3, 224 Кбит/сек, 2 канала(ов), 48,0 КГц - Дублированный, ОРТ / Русский
    Аудио 2: AC-3, 448 Кбит/сек, 6 канала(ов), 48,0 КГц - Многоголосый закадровый, Видеосервис / Русский
    Аудио 3: AC-3, 448 Кбит/сек, 6 канала(ов), 48,0 КГц - Оригинал / Японский
    Субтитры: Русские | Полные, Английские | Полные
    Форсированные субтитры: Нет
    Чаптеры (Главы): Есть



Автор Рипа: Сообщество:



Format : Matroska
Format version : Version 2
File size : 5.76 GiB
Duration : 1h 47mn
Overall bit rate : 7 670 Kbps
Movie name : Метрополис.(2001).BDRip.1080p.[envy]
Encoded date : UTC 2014-09-29 11:37:54
Writing application : mkvmerge v5.8.0 ('No Sleep / Pillow') built on Sep 2 2012 15:37:04
Writing library : libebml v1.2.3 + libmatroska v1.3.0

Video
ID : 1
Format : AVC
Format/Info : Advanced Video Codec
Format profile : High@L4.1
Format settings, CABAC : Yes
Format settings, ReFrames : 4 frames
Codec ID : V_MPEG4/ISO/AVC
Duration : 1h 47mn
Bit rate : 6 553 Kbps
Width : 1 816 pixels
Height : 992 pixels
Display aspect ratio : 1.85:1
Frame rate mode : Constant
Frame rate : 23.976 fps
Color space : YUV
Chroma subsampling : 4:2:0
Bit depth : 8 bits
Scan type : Progressive
Bits/(Pixel*Frame) : 0.152
Stream size : 4.81 GiB (83%)
Title : Метрополис.(2001).BDRip.1080p.[envy]
Writing library : x264 core 142 r2479 dd79a61
Encoding settings : cabac=1 / ref=4 / deblock=1:0:0 / analyse=0x3:0x113 / me=umh / subme=11 / psy=1 / psy_rd=1.00:0.00 / mixed_ref=1 / me_range=48 / chroma_me=1 / trellis=2 / 8x8dct=1 / cqm=0 / deadzone=21,11 / fast_pskip=0 / chroma_qp_offset=-2 / threads=12 / lookahead_threads=2 / sliced_threads=0 / nr=0 / decimate=1 / interlaced=0 / bluray_compat=0 / constrained_intra=0 / bframes=7 / b_pyramid=2 / b_adapt=2 / b_bias=0 / direct=3 / weightb=1 / open_gop=0 / weightp=2 / keyint=240 / keyint_min=23 / scenecut=40 / intra_refresh=0 / rc=2pass / mbtree=0 / bitrate=6553 / ratetol=2.0 / qcomp=0.60 / qpmin=0 / qpmax=69 / qpstep=4 / cplxblur=20.0 / qblur=0.5 / ip_ratio=1.40 / pb_ratio=1.30 / aq=2:1.00
Language : English
Default : Yes
Forced : No

Audio #1
ID : 2
Format : AC-3
Format/Info : Audio Coding 3
Mode extension : CM (complete main)
Format settings, Endianness : Big
Codec ID : A_AC3
Duration : 1h 47mn
Bit rate mode : Constant
Bit rate : 224 Kbps
Channel(s) : 2 channels
Channel positions : Front: L R
Sampling rate : 48.0 KHz
Bit depth : 16 bits
Compression mode : Lossy
Stream size : 172 MiB (3%)
Title : Dub
Language : Russian
Default : Yes
Forced : No

Audio #2
ID : 3
Format : AC-3
Format/Info : Audio Coding 3
Mode extension : CM (complete main)
Format settings, Endianness : Big
Codec ID : A_AC3
Duration : 1h 47mn
Bit rate mode : Constant
Bit rate : 448 Kbps
Channel(s) : 6 channels
Channel positions : Front: L C R, Side: L R, LFE
Sampling rate : 48.0 KHz
Bit depth : 16 bits
Compression mode : Lossy
Stream size : 345 MiB (6%)
Title : MVO Videoservis
Language : Russian
Default : No
Forced : No

Audio #3
ID : 4
Format : AC-3
Format/Info : Audio Coding 3
Mode extension : CM (complete main)
Format settings, Endianness : Big
Codec ID : A_AC3
Duration : 1h 47mn
Bit rate mode : Constant
Bit rate : 448 Kbps
Channel(s) : 6 channels
Channel positions : Front: L C R, Side: L R, LFE
Sampling rate : 48.0 KHz
Bit depth : 16 bits
Compression mode : Lossy
Stream size : 345 MiB (6%)
Title : Jpn
Language : Japanese
Default : No
Forced : No

Text #1
ID : 5
Format : UTF-8
Codec ID : S_TEXT/UTF8
Codec ID/Info : UTF-8 Plain Text
Title : full
Language : Russian
Default : No
Forced : No

Text #2
ID : 6
Format : UTF-8
Codec ID : S_TEXT/UTF8
Codec ID/Info : UTF-8 Plain Text
Title : full
Language : English
Default : No
Forced : No

Menu
00:00:00.000 : :Chapter 01
00:03:07.729 : :Chapter 02
00:04:53.250 : :Chapter 03
00:05:58.940 : :Chapter 04
00:06:55.664 : :Chapter 05
00:07:36.705 : :Chapter 06
00:09:34.281 : :Chapter 07
00:10:23.246 : :Chapter 08
00:13:08.162 : :Chapter 09
00:14:13.726 : :Chapter 10
00:16:21.897 : :Chapter 11
00:19:12.276 : :Chapter 12
00:22:28.846 : :Chapter 13
00:23:28.906 : :Chapter 14
00:24:34.471 : :Chapter 15
00:25:33.447 : :Chapter 16
00:27:08.460 : :Chapter 17
00:28:50.561 : :Chapter 18
00:30:38.169 : :Chapter 19
00:33:21.289 : :Chapter 20
00:35:12.443 : :Chapter 21
00:36:26.934 : :Chapter 22
00:38:01.027 : :Chapter 23
00:38:40.067 : :Chapter 24
00:39:22.400 : :Chapter 25
00:41:25.858 : :Chapter 26
00:43:20.722 : :Chapter 27
00:46:06.096 : :Chapter 28
00:47:13.914 : :Chapter 29
00:48:53.554 : :Chapter 30
00:49:45.523 : :Chapter 31
00:50:40.077 : :Chapter 32
00:52:12.295 : :Chapter 33
00:53:14.608 : :Chapter 34
00:54:45.824 : :Chapter 35
00:56:43.148 : :Chapter 36
00:57:58.432 : :Chapter 37
00:59:25.978 : :Chapter 38
01:01:46.244 : :Chapter 39
01:03:30.305 : :Chapter 40
01:06:09.005 : :Chapter 41
01:07:32.088 : :Chapter 42
01:08:39.280 : :Chapter 43
01:09:34.587 : :Chapter 44
01:12:19.710 : :Chapter 45
01:13:54.680 : :Chapter 46
01:16:03.015 : :Chapter 47
01:17:48.412 : :Chapter 48
01:19:24.134 : :Chapter 49
01:20:35.162 : :Chapter 50
01:24:11.421 : :Chapter 51
01:26:15.336 : :Chapter 52
01:27:49.555 : :Chapter 53
01:30:11.905 : :Chapter 54
01:32:01.724 : :Chapter 55
01:34:14.439 : :Chapter 56
01:38:57.347 : :Chapter 57
01:42:45.158 : :Chapter 58
01:47:29.859 : :Chapter 59



#77



   Похожие торренты   Торрент   Размер 
В этой теме нет новых непрочитанных сообщений. Метрополис / Metoroporisu / Metropolis (2001) BDRip от Stranik 2.0 | D

64 | 34

1.97 ГБ

В этой теме нет новых непрочитанных сообщений. Метрополис / Metoroporisu (2001) BDRip-AVC | iPad | D,P

41 | 8

2.32 ГБ

В этой теме нет новых непрочитанных сообщений. Метрополис / Metropolis (1927) BDRip-AVC от MediaClub | Полная отреставрированная версия

93 | 5

3.08 ГБ

В этой теме нет новых непрочитанных сообщений. Метрополис / Metropolis (1927) BDRip от HQCLUB |Complete Restored Edition|

8 | 2

2.18 ГБ

В этой теме нет новых непрочитанных сообщений. Метрополис / Metropolis (1927) HDTVRip | Полная версия

25 | 4

1.47 ГБ

В этой теме нет новых непрочитанных сообщений. Метрополис / Metropolis (1927) HDTVRip | Полная версия

10 | 2

773.62 МБ

В этой теме нет новых непрочитанных сообщений. Метрополис / Metropolis [THE COMPLETE RESTORED VERSION] (1927) HDTVRip 720p

268 | 7

4.93 ГБ




Вы не можете начинать темы
Вы не можете отвечать на сообщения
Вы не можете редактировать свои сообщения
Вы не можете удалять свои сообщения
Вы не можете добавлять вложения

Перейти:  
Для Мосгорсуда, Роскомнадзора и рекламодателей: mosgorsud-torrent[собачка]yandex.ru
 Вход
ppkBB3cker v.2 © 2008-2014 @ PPK
[ Time : 0.050s | 15 Queries | GZIP : Off ]

Торрент трекер RUTOR.IN, Не можете зайти на rutor.org? Какой новый адрес рутор? Какое зеркало рутор? Не работает rutor.org и зеркала? Тогда наш торрент специально для вас. Rutor.in неофициальное зеркало rutor. В случае если у Вас заблокирован rutor или вдруг Вы не можете на него зайти, то Вы без труда сможете скачать бесплатно и без рекламы последние новинки кино, игр, сериалов и прочего у нас, на Rutor.in. Не нужно использовать прокси, чтобы зайти на рутор, достаточно воспользоваться нашим ресурсом. Все новые фильмы, игры, сериалы, книги и музыка за 2013 и 2014 годы через торрент бесплатно. Скачивайте фильмы в хорошем качестве, игры для пк, xbox, playstation без регистрации. У нас вы найдете новые Зарубежные сериалы и Русские сериалы 2013, 2014, 2015 годов. Оставайтесь с нами, качайте любимые фильмы, игры, сериалы, книги и музыку.