img image001 image001 image001 image001 image001 image001 image001 image001 image001 image001 image001 image001 image001 image001 image001

Planets Sun Sun Sun
Статистика раздачи
Автор: Nickolas3434 | Размер: 5.77 ГБ | Добавлен: 30 сен 2014
Раздают: 125    Качают: 29
Скачать торрент
Скачать торрент
Описание торрента

СообщениеДобавлено: 30 сен 2014 


#77
Информация о фильме
    Русское название: Ветер крепчает
    Оригинальное название: The Wind Rises / Kaze Tachinu
    Год выхода: 2013
    Жанр: Аниме, мультфильм, драма, биография
    Режиссер: Хаяо Миядзаки
    Выпущено: Япония
    Продолжительность: 02:06:31
    Перевод: Дублированный
    В ролях: Хидеаки Анно, Хидэтоси Нисидзима, Миори Такимото, Масахико Нисимура, Мансай Номура, Морио Кадзама, Дзюн Кунимура, Мираи Сида, Кейко Такэсита, Синобу Отакэ


Сюжет фильма
    Мальчик Дзиро мечтает о полетах и красивых самолетах, способных обогнать ветер. Вот только пилотом ему не стать — он с рождения близорук. Но Дзиро не расстается с мечтой о небе, он начинает придумывать идеальный самолет и со временем становится одним из лучших авиаконструкторов мира. На пути к успеху он не только встретит много интересных людей, переживет Великое землетрясение в Токио и жестокие войны, но и обретет любовь своей жизни — прекрасную Наоко.


Файл
    Качество: BDRip 1080p (исходник Blu-ray Disc)
    Видео: 1920x1038, 6139 Кбит/сек, 23,976 кадр/сек, AVC, x264, High@L4.1, 1.85:1, 0.128 Бит/[Пиксели*Кадры]
    Аудио 1: AC-3, 192 Кбит/сек, 1 канала(ов), 48,0 КГц - Дублированный / Русский
    Аудио 2: AC-3, 192 Кбит/сек, 1 канала(ов), 48,0 КГц - Оригинал / Японский
    Субтитры: Русские | Полные, Английские | Полные
    Форсированные субтитры: Нет
    Чаптеры (Главы): Есть



Автор Рипа: Сообщество:



Format : Matroska
Format version : Version 2
File size : 5.77 GiB
Duration : 2h 6mn
Overall bit rate : 6 526 Kbps
Movie name : Ветер крепчает.(2013).BDRip.1080p.[envy]
Encoded date : UTC 2014-09-30 14:38:23
Writing application : mkvmerge v5.8.0 ('No Sleep / Pillow') built on Sep 2 2012 15:37:04
Writing library : libebml v1.2.3 + libmatroska v1.3.0

Video
ID : 1
Format : AVC
Format/Info : Advanced Video Codec
Format profile : High@L4.1
Format settings, CABAC : Yes
Format settings, ReFrames : 4 frames
Codec ID : V_MPEG4/ISO/AVC
Duration : 2h 6mn
Bit rate : 6 139 Kbps
Width : 1 920 pixels
Height : 1 038 pixels
Display aspect ratio : 1.85:1
Frame rate mode : Constant
Frame rate : 23.976 fps
Color space : YUV
Chroma subsampling : 4:2:0
Bit depth : 8 bits
Scan type : Progressive
Bits/(Pixel*Frame) : 0.128
Stream size : 5.31 GiB (92%)
Title : Ветер крепчает.(2013).BDRip.1080p.[envy]
Writing library : x264 core 142 r2479 dd79a61
Encoding settings : cabac=1 / ref=4 / deblock=1:0:0 / analyse=0x3:0x113 / me=umh / subme=11 / psy=1 / psy_rd=1.00:0.00 / mixed_ref=1 / me_range=48 / chroma_me=1 / trellis=2 / 8x8dct=1 / cqm=0 / deadzone=21,11 / fast_pskip=0 / chroma_qp_offset=-2 / threads=12 / lookahead_threads=1 / sliced_threads=0 / nr=0 / decimate=1 / interlaced=0 / bluray_compat=0 / constrained_intra=0 / bframes=6 / b_pyramid=2 / b_adapt=2 / b_bias=0 / direct=3 / weightb=1 / open_gop=0 / weightp=2 / keyint=240 / keyint_min=23 / scenecut=40 / intra_refresh=0 / rc=2pass / mbtree=0 / bitrate=6139 / ratetol=2.0 / qcomp=0.60 / qpmin=0 / qpmax=69 / qpstep=4 / cplxblur=20.0 / qblur=0.5 / ip_ratio=1.40 / pb_ratio=1.30 / aq=2:0.90
Language : English
Default : Yes
Forced : No

Audio #1
ID : 2
Format : AC-3
Format/Info : Audio Coding 3
Mode extension : CM (complete main)
Format settings, Endianness : Big
Codec ID : A_AC3
Duration : 2h 6mn
Bit rate mode : Constant
Bit rate : 192 Kbps
Channel(s) : 1 channel
Channel positions : Front: C
Sampling rate : 48.0 KHz
Bit depth : 16 bits
Compression mode : Lossy
Stream size : 174 MiB (3%)
Title : Dub
Language : Russian
Default : Yes
Forced : No

Audio #2
ID : 3
Format : AC-3
Format/Info : Audio Coding 3
Mode extension : CM (complete main)
Format settings, Endianness : Big
Codec ID : A_AC3
Duration : 2h 6mn
Bit rate mode : Constant
Bit rate : 192 Kbps
Channel(s) : 1 channel
Channel positions : Front: C
Sampling rate : 48.0 KHz
Bit depth : 16 bits
Compression mode : Lossy
Stream size : 174 MiB (3%)
Title : Jpn
Language : Japanese
Default : No
Forced : No

Text #1
ID : 4
Format : UTF-8
Codec ID : S_TEXT/UTF8
Codec ID/Info : UTF-8 Plain Text
Title : full
Language : Russian
Default : No
Forced : No

Text #2
ID : 5
Format : UTF-8
Codec ID : S_TEXT/UTF8
Codec ID/Info : UTF-8 Plain Text
Title : full
Language : English
Default : No
Forced : No

Menu
00:00:00.000 : :Chapter 01
00:07:09.220 : :Chapter 02
00:12:52.688 : :Chapter 03
00:21:53.979 : :Chapter 04
00:30:06.471 : :Chapter 05
00:37:49.433 : :Chapter 06
00:44:57.528 : :Chapter 07
00:52:59.634 : :Chapter 08
01:00:33.755 : :Chapter 09
01:08:06.290 : :Chapter 10
01:17:12.919 : :Chapter 11
01:28:44.026 : :Chapter 12
01:35:20.548 : :Chapter 13
01:46:39.059 : :Chapter 14
01:52:45.883 : :Chapter 15
02:02:56.744 : :Chapter 16
02:06:30.165 : :Chapter 17



#77



   Похожие торренты   Торрент   Размер 
В этой теме нет новых непрочитанных сообщений. Ветер крепчает / Kaze Tachinu / The Wind Rises (2013) BDRip 1080p

449 | 67

12.12 ГБ

В этой теме нет новых непрочитанных сообщений. Ветер крепчает / Kaze Tachinu (2013) HDRip-1080p | Трейлер

47 | 6

109.69 МБ

В этой теме нет новых непрочитанных сообщений. Ветер крепчает / Kaze tachinu (2013) BDRip-AVC | iPad | D

17 | 6

2.05 ГБ

В этой теме нет новых непрочитанных сообщений. Ветер крепчает / Kaze tachinu (2013) BDRip 720p

345 | 54

2.98 ГБ

В этой теме нет новых непрочитанных сообщений. Ветер крепчает / Kaze tachinu (2013) BDRip 720p | D, A

89 | 9

5.28 ГБ

В этой теме нет новых непрочитанных сообщений. OST - Ветер крепчает / Kaze Tachinu (2013) MP3

5 | 4

185.48 МБ

В этой теме нет новых непрочитанных сообщений. Ветер крепчает / Kaze Tachinu (2013) DVB

753 | 154

3 ГБ




Вы не можете начинать темы
Вы не можете отвечать на сообщения
Вы не можете редактировать свои сообщения
Вы не можете удалять свои сообщения
Вы не можете добавлять вложения

Перейти:  
Для Мосгорсуда, Роскомнадзора и рекламодателей: mosgorsud-torrent[собачка]yandex.ru
 Вход
ppkBB3cker v.2 © 2008-2014 @ PPK
[ Time : 0.042s | 16 Queries | GZIP : Off ]

Торрент трекер RUTOR.IN, Не можете зайти на rutor.org? Какой новый адрес рутор? Какое зеркало рутор? Не работает rutor.org и зеркала? Тогда наш торрент специально для вас. Rutor.in неофициальное зеркало rutor. В случае если у Вас заблокирован rutor или вдруг Вы не можете на него зайти, то Вы без труда сможете скачать бесплатно и без рекламы последние новинки кино, игр, сериалов и прочего у нас, на Rutor.in. Не нужно использовать прокси, чтобы зайти на рутор, достаточно воспользоваться нашим ресурсом. Все новые фильмы, игры, сериалы, книги и музыка за 2013 и 2014 годы через торрент бесплатно. Скачивайте фильмы в хорошем качестве, игры для пк, xbox, playstation без регистрации. У нас вы найдете новые Зарубежные сериалы и Русские сериалы 2013, 2014, 2015 годов. Оставайтесь с нами, качайте любимые фильмы, игры, сериалы, книги и музыку.
cron