img image001 image001 image001 image001 image001 image001 image001 image001 image001 image001 image001 image001 image001 image001 image001

Planets Sun Sun Sun
Статистика раздачи
Автор: Nickolas3434 | Размер: 8.78 ГБ | Добавлен: 02 окт 2014
Раздают: 184    Качают: 50
Скачать торрент
Скачать торрент
Описание торрента

СообщениеДобавлено: 02 окт 2014 


Название: Непутевый Ученик в школе магии
Оригинальное название: Mahouka Koukou no Rettousei
Год выхода: 2014
Жанр: приключения, романтика, фантастика, школа
Режиссер: Оно Манабу
Магия... Теперь это реальная технология, открытая учеными. Для обучения будущих Волшебников (Специалистов Магии) государства открыло несколько школ и университет.
Непутёвый старший брат Тацуя и его безупречная младшая сестрёнка Миюки поступили в одну из Старших Школ Магии. С этого момента у них начинается новая удивительная жизнь - новые друзья и враги, работа в школьном совете и др.

General
Complete name : /etc/seedbox/home/natsu/data/[AniDub]_Mahouka_Koukou_no_Rettousei_[720p]_[BalFor_Oriko]/[AniDub]_Mahouka_Koukou_no_Rettousei_[01]_[720p]_[BalFor_Oriko].mp4
Format : MPEG-4
Format profile : Base Media
Codec ID : isom
File size : 351 MiB
Duration : 23mn 59s
Overall bit rate mode : Variable
Overall bit rate : 2 045 Kbps
Encoded date : UTC 2014-04-10 07:48:52
Tagged date : UTC 2014-04-10 07:48:52
Writing application : Yamb 2.1.0.0 [http://yamb.unite-video.com]

Video
ID : 1
Format : AVC
Format/Info : Advanced Video Codec
Format profile : High@L4.1
Format settings, CABAC : Yes
Format settings, ReFrames : 4 frames
Codec ID : avc1
Codec ID/Info : Advanced Video Coding
Duration : 23mn 59s
Bit rate : 1 878 Kbps
Maximum bit rate : 14.0 Mbps
Width : 1 280 pixels
Height : 720 pixels
Display aspect ratio : 16:9
Frame rate mode : Constant
Frame rate : 23.976 fps
Color space : YUV
Chroma subsampling : 4:2:0
Bit depth : 8 bits
Scan type : Progressive
Bits/(Pixel*Frame) : 0.085
Stream size : 322 MiB (92%)
Title : www.AniDub.com
Writing library : x264 core 129 r2245+729M 1a52e03
Encoding settings : cabac=1 / ref=4 / deblock=1:1:-1 / analyse=0x3:0x113 / me=umh / subme=9 / psy=1 / fade_compensate=0.00 / psy_rd=1.00:0.00 / mixed_ref=1 / me_range=24 / chroma_me=1 / trellis=2 / 8x8dct=1 / cqm=0 / deadzone=21,11 / fast_pskip=1 / chroma_qp_offset=-2 / threads=8 / lookahead_threads=1 / sliced_threads=0 / nr=0 / decimate=1 / interlaced=0 / bluray_compat=0 / constrained_intra=0 / fgo=0 / bframes=9 / b_pyramid=2 / b_adapt=2 / b_bias=0 / direct=1 / weightb=1 / open_gop=0 / weightp=2 / keyint=240 / keyint_min=24 / scenecut=40 / intra_refresh=0 / rc=crf / mbtree=0 / crf=19.0 / qcomp=0.72 / qpmin=0 / qpmax=69 / qpstep=4 / ip_ratio=1.40 / pb_ratio=1.30 / aq=1:0.85
Encoded date : UTC 2014-04-06 07:12:21
Tagged date : UTC 2014-04-10 07:49:06
Color primaries : BT.709
Transfer characteristics : BT.709
Matrix coefficients : BT.709

Audio
ID : 2
Format : AAC
Format/Info : Advanced Audio Codec
Format profile : LC
Codec ID : 40
Duration : 23mn 59s
Bit rate mode : Variable
Bit rate : 163 Kbps
Maximum bit rate : 244 Kbps
Channel count : 2 channels
Channel positions : Front: L R
Sampling rate : 48.0 KHz
Compression mode : Lossy
Stream size : 27.9 MiB (8%)
Language : Russian
Encoded date : UTC 2014-04-10 07:49:04
Tagged date : UTC 2014-04-10 07:49:06


Страна: Япония
Продолжительность: (26 эп.), 25 мин.
Кодек: MP4
Качество: HDTV-Rip 720p
Видео: 1280x720, 23.976fps, ~ 2 045 Kbps
Звук: RU - AAC, 48.0Hz, 163 Kbps

Переводчики: Sleepless Studios
Озвучивание: Любительский двухголосый закадровый BalFor & Oriko
Тайминг и работа со звуком: FooBoo




   Похожие торренты   Торрент   Размер 
В этой теме нет новых непрочитанных сообщений. Непутевый Ученик в школе магии / Mahouka Koukou no Rettousei [01-18 из 26] (2014) HDTV-Rip 720p от Animedia |L2

7 | 18

6.78 ГБ

В этой теме нет новых непрочитанных сообщений. Непутевый Ученик в школе магии / Mahouka Koukou no Rettousei [01-19 из 26] (2014) HDTV-Rip 720p от Animedia | L2

44 | 32

7.21 ГБ

В этой теме нет новых непрочитанных сообщений. Непутёвый ученик в школе магии / Mahouka Koukou no Rettousei [TV] [01-02 из 26] (2014) WEBRip 720p | AniFilm

27 | 23

739.03 МБ

В этой теме нет новых непрочитанных сообщений. Непутёвый ученик в школе магии / Mahouka Koukou no Rettousei [TV] [01-04 из 26] (2014) WEBRip 720p | AniFilm

47 | 29

1.32 ГБ

В этой теме нет новых непрочитанных сообщений. Непутёвый ученик в Школе Магии / Mahouka Koukou no Rettousei [03 из 26] (2014) HDTVRip 720p | Gezell Studio

13 | 25

1.1 ГБ

В этой теме нет новых непрочитанных сообщений. Непутёвый ученик в Школе Магии / Mahouka Koukou no Rettousei [01-08 из 26] (2014) HDTVRip 720p | Gezell Studio

10 | 29

2.67 ГБ

В этой теме нет новых непрочитанных сообщений. Непутёвый ученик в Школе Магии / Посредственность из школы магов / Mahouka Koukou no Rettousei [01-02 из 26] (2014) HDTVRip 720p | L2

10 | 91

626.08 МБ




Вы не можете начинать темы
Вы не можете отвечать на сообщения
Вы не можете редактировать свои сообщения
Вы не можете удалять свои сообщения
Вы не можете добавлять вложения

Перейти:  
Для Мосгорсуда, Роскомнадзора и рекламодателей: mosgorsud-torrent[собачка]yandex.ru
 Вход
ppkBB3cker v.2 © 2008-2014 @ PPK
[ Time : 0.581s | 14 Queries | GZIP : Off ]

Торрент трекер RUTOR.IN, Не можете зайти на rutor.org? Какой новый адрес рутор? Какое зеркало рутор? Не работает rutor.org и зеркала? Тогда наш торрент специально для вас. Rutor.in неофициальное зеркало rutor. В случае если у Вас заблокирован rutor или вдруг Вы не можете на него зайти, то Вы без труда сможете скачать бесплатно и без рекламы последние новинки кино, игр, сериалов и прочего у нас, на Rutor.in. Не нужно использовать прокси, чтобы зайти на рутор, достаточно воспользоваться нашим ресурсом. Все новые фильмы, игры, сериалы, книги и музыка за 2013 и 2014 годы через торрент бесплатно. Скачивайте фильмы в хорошем качестве, игры для пк, xbox, playstation без регистрации. У нас вы найдете новые Зарубежные сериалы и Русские сериалы 2013, 2014, 2015 годов. Оставайтесь с нами, качайте любимые фильмы, игры, сериалы, книги и музыку.