img image001 image001 image001 image001 image001 image001 image001 image001 image001 image001 image001 image001 image001 image001 image001

Planets Sun Sun Sun
Статистика раздачи
Автор: Nickolas3434 | Размер: 7.76 ГБ | Добавлен: 05 окт 2014
Раздают: 171    Качают: 19
Скачать торрент
Скачать торрент
Описание торрента

СообщениеДобавлено: 05 окт 2014 


#77
Информация о фильме
    Русское название: Принцесса Мононоке
    Оригинальное название: Mononoke Hime / Princess Mononoke
    Год выхода: 1997
    Жанр: аниме, фэнтези, драма, приключения
    Режиссер: Хаяо Миядзаки
    Выпущено: Япония
    Продолжительность: 02:13:23
    Перевод: Дублированный (Reanimedia)
    В ролях: Едзи Мацуда, Юрико Исида, Юко Танака, Каору Кобаяси, Масахико Нисимура, Цунэхико Камидзо, Суми Симамото, Тэцу Ватанабэ, Макото Сато, Акира Нагоя, Акихиро Мива, Мицуко Мори, Хисая Морисигэ


Сюжет фильма
    Средневековая Япония, середина XV века. В стране пылает междоусобная война. Молодой воин по имени Аситака из племени эмиси отправляется в лес великого божества Сисигами, чтобы очиститься от проклятия, перешедшее на него от обезумевшего Бога Кабанов. Произошло это, когда Аситака для спасения своей деревни вынужден был убить его. Необходимо торопиться, проклятье медленно, но верно убивает юного воина. На границе леса он находит поселение сталеваров, возглавляемое харизматичной Эбоси-годзэн. Вырубание леса для сталеваров – необходимый элемент производственного цикла. Им необходимо топливо. Благодаря производимому ими металлу и изготовляемому из него огнестрельному оружию они могут сохранить независимость от окружающих феодалов. Поселение Эбоси - прибежище прокаженных и беглых преступников. Людям противостоят разумные животные, населяющие леса, и их божества во главе с Богиней-волчицей и её воспитанницей - Сан, Принцессой-мононокэ ("мононокэ" по-японски - "разгневанный дух"). И те, и другие защищают свои интересы. И ни тем, ни другим просто некуда отступать. Третья сила в конфликте - шпионы императора, желающие использовать ситуацию, чтобы заполучить голову Сисигами, которая, по древней легенде, может дать бессмертие ее обладателю. Героизм и предательство, любовь и ненависть, извечная вражда и вновь зарождающееся доверие - в этом фильме есть всё.


Файл
    Качество: BDRip 1080p (исходник Blu-ray Disc)
    Видео: 1920x1038, 7434 Кбит/сек, 23,976 кадр/сек, AVC, x264, High@L4.1, 1.85:1, 0.156 Бит/[Пиксели*Кадры]
    Аудио 1: AC-3, 448 Кбит/сек, 6 канала(ов), 48,0 КГц - Дублированный / Русский
    Аудио 2: AC-3, 448 Кбит/сек, 6 канала(ов), 48,0 КГц - Оригинал / Японский
    Субтитры: Русские | Полные, Английские | Полные
    Форсированные субтитры: Нет
    Чаптеры (Главы): Есть



Автор Рипа: Сообщество:



Format : Matroska
Format version : Version 2
File size : 7.76 GiB
Duration : 2h 13mn
Overall bit rate : 8 325 Kbps
Movie name : Принцесса Мононоке.(1997).BDRip.1080p.[envy]
Encoded date : UTC 2014-10-03 12:53:29
Writing application : mkvmerge v5.8.0 ('No Sleep / Pillow') built on Sep 2 2012 15:37:04
Writing library : libebml v1.2.3 + libmatroska v1.3.0

Video
ID : 1
Format : AVC
Format/Info : Advanced Video Codec
Format profile : High@L4.1
Format settings, CABAC : Yes
Format settings, ReFrames : 4 frames
Codec ID : V_MPEG4/ISO/AVC
Duration : 2h 13mn
Bit rate : 7 434 Kbps
Width : 1 920 pixels
Height : 1 038 pixels
Display aspect ratio : 1.85:1
Frame rate mode : Constant
Frame rate : 23.976 fps
Color space : YUV
Chroma subsampling : 4:2:0
Bit depth : 8 bits
Scan type : Progressive
Bits/(Pixel*Frame) : 0.156
Stream size : 6.77 GiB (87%)
Title : Принцесса Мононоке.(1997).BDRip.1080p.[envy]
Writing library : x264 core 142 r2479 dd79a61
Encoding settings : cabac=1 / ref=4 / deblock=1:0:0 / analyse=0x3:0x113 / me=umh / subme=11 / psy=1 / psy_rd=1.00:0.00 / mixed_ref=1 / me_range=48 / chroma_me=1 / trellis=2 / 8x8dct=1 / cqm=0 / deadzone=21,11 / fast_pskip=0 / chroma_qp_offset=-2 / threads=12 / lookahead_threads=2 / sliced_threads=0 / nr=0 / decimate=1 / interlaced=0 / bluray_compat=0 / constrained_intra=0 / bframes=7 / b_pyramid=2 / b_adapt=2 / b_bias=0 / direct=3 / weightb=1 / open_gop=0 / weightp=2 / keyint=240 / keyint_min=23 / scenecut=40 / intra_refresh=0 / rc=2pass / mbtree=0 / bitrate=7434 / ratetol=2.0 / qcomp=0.60 / qpmin=0 / qpmax=69 / qpstep=4 / cplxblur=20.0 / qblur=0.5 / ip_ratio=1.40 / pb_ratio=1.30 / aq=2:0.90
Language : English
Default : Yes
Forced : No

Audio #1
ID : 2
Format : AC-3
Format/Info : Audio Coding 3
Mode extension : CM (complete main)
Format settings, Endianness : Big
Codec ID : A_AC3
Duration : 2h 13mn
Bit rate mode : Constant
Bit rate : 448 Kbps
Channel(s) : 6 channels
Channel positions : Front: L C R, Side: L R, LFE
Sampling rate : 48.0 KHz
Bit depth : 16 bits
Compression mode : Lossy
Stream size : 427 MiB (5%)
Title : Dub
Language : Russian
Default : Yes
Forced : No

Audio #2
ID : 3
Format : AC-3
Format/Info : Audio Coding 3
Mode extension : CM (complete main)
Format settings, Endianness : Big
Codec ID : A_AC3
Duration : 2h 13mn
Bit rate mode : Constant
Bit rate : 448 Kbps
Channel(s) : 6 channels
Channel positions : Front: L C R, Side: L R, LFE
Sampling rate : 48.0 KHz
Bit depth : 16 bits
Compression mode : Lossy
Stream size : 427 MiB (5%)
Title : Jpn
Language : Japanese
Default : No
Forced : No

Text #1
ID : 4
Format : UTF-8
Codec ID : S_TEXT/UTF8
Codec ID/Info : UTF-8 Plain Text
Title : full
Language : Russian
Default : No
Forced : No

Text #2
ID : 5
Format : UTF-8
Codec ID : S_TEXT/UTF8
Codec ID/Info : UTF-8 Plain Text
Title : full
Language : English
Default : No
Forced : No

Menu
00:00:00.000 : :Chapter 01
00:01:09.194 : :Chapter 02
00:07:31.033 : :Chapter 03
00:12:27.246 : :Chapter 04
00:18:47.376 : :Chapter 05
00:23:12.933 : :Chapter 06
00:28:48.852 : :Chapter 07
00:32:54.347 : :Chapter 08
00:38:44.780 : :Chapter 09
00:44:17.112 : :Chapter 10
00:49:39.184 : :Chapter 11
00:54:40.694 : :Chapter 12
00:59:35.863 : :Chapter 13
01:05:06.318 : :Chapter 14
01:07:44.351 : :Chapter 15
01:12:41.982 : :Chapter 16
01:17:24.431 : :Chapter 17
01:22:26.566 : :Chapter 18
01:27:24.280 : :Chapter 19
01:33:21.429 : :Chapter 20
01:38:19.143 : :Chapter 21
01:43:08.306 : :Chapter 22
01:48:14.487 : :Chapter 23
01:52:27.240 : :Chapter 24
01:57:30.209 : :Chapter 25
02:02:37.224 : :Chapter 26
02:05:21.305 : :Chapter 27
02:08:31.203 : :Chapter 28
02:13:21.910 : :Chapter 29



#77



   Похожие торренты   Торрент   Размер 
В этой теме нет новых непрочитанных сообщений. Принцесса Мононоке / Mononoke Hime / Princess Mononoke (1997) BDRip-1080p (Hi10P) | D, P, P2, A

9 | 7

21.12 ГБ

В этой теме нет новых непрочитанных сообщений. Принцесса Мононоке / Mononoke Hime (Princess Mononoke) (1997) BDRemux 1080p | D, P, P2, A

13 | 7

28.79 ГБ

В этой теме нет новых непрочитанных сообщений. Принцесса Мононоке / Mononoke Hime / Princess Mononoke (1997) BDRip-AVC от MediaClub | D, P, P2, A

40 | 9

6.12 ГБ

В этой теме нет новых непрочитанных сообщений. Принцесса Мононоке / Princess Mononoke / Mononoke-hime (1997) BDRip от HQCLUB

537 | 46

2.18 ГБ

В этой теме нет новых непрочитанных сообщений. Принцесса Мононоке / Mononoke Hime / Princess Mononoke (1997) BDRip от KinoRay & Sheikn | P, P2, A

21 | 13

5.4 ГБ

В этой теме нет новых непрочитанных сообщений. Принцесса Мононоке / Princess Mononoke / Mononoke Hime (1997) HDTVRip от Youtracker | D

0 | 1

2.17 ГБ

В этой теме нет новых непрочитанных сообщений. Принцесса Мононоке / Princess Mononoke / Mononoke Hime (1997) HDRip от New-Team

59 | 20

798.49 МБ




Вы не можете начинать темы
Вы не можете отвечать на сообщения
Вы не можете редактировать свои сообщения
Вы не можете удалять свои сообщения
Вы не можете добавлять вложения

Перейти:  
Для Мосгорсуда, Роскомнадзора и рекламодателей: mosgorsud-torrent[собачка]yandex.ru
 Вход
ppkBB3cker v.2 © 2008-2014 @ PPK
[ Time : 0.045s | 15 Queries | GZIP : Off ]

Торрент трекер RUTOR.IN, Не можете зайти на rutor.org? Какой новый адрес рутор? Какое зеркало рутор? Не работает rutor.org и зеркала? Тогда наш торрент специально для вас. Rutor.in неофициальное зеркало rutor. В случае если у Вас заблокирован rutor или вдруг Вы не можете на него зайти, то Вы без труда сможете скачать бесплатно и без рекламы последние новинки кино, игр, сериалов и прочего у нас, на Rutor.in. Не нужно использовать прокси, чтобы зайти на рутор, достаточно воспользоваться нашим ресурсом. Все новые фильмы, игры, сериалы, книги и музыка за 2013 и 2014 годы через торрент бесплатно. Скачивайте фильмы в хорошем качестве, игры для пк, xbox, playstation без регистрации. У нас вы найдете новые Зарубежные сериалы и Русские сериалы 2013, 2014, 2015 годов. Оставайтесь с нами, качайте любимые фильмы, игры, сериалы, книги и музыку.