img image001 image001 image001 image001 image001 image001 image001 image001 image001 image001 image001 image001 image001 image001 image001

Planets Sun Sun Sun
Статистика раздачи
Автор: Nickolas3434 | Размер: 5.76 ГБ | Добавлен: 09 окт 2014
Раздают: 109    Качают: 13
Скачать торрент
Скачать торрент
Описание торрента

СообщениеДобавлено: 09 окт 2014 


#77
Информация о фильме
    Русское название: Война тануки в периоды Хэйсэй и Помпоко
    Оригинальное название: Pom Poko / Heisei Tanuki Gassen Ponpoko
    Год выхода: 1994
    Жанр: аниме, мультфильм, фэнтези, драма, комедия
    Режиссер: Исао Такахата
    Выпущено: Япония
    Продолжительность: 01:59:11
    Перевод: Профессиональный (Многоголосый закадровый)
    В ролях: Синтё Коконтэй, Макото Нономура, Юрико Ишида, Норихэй Мики, Нидзико Киёкава, Сигеру Изумия, Ганносукэ Асия, Такэхиро Мурата, Бэйто Кацура, Санси Кацура, Косан Янагия, Акира Камия, Рэй Сакума, Томокадзу Секи, Минору Яда, Йори Йамашита


Сюжет фильма
    Современная Япония, западные окраины Токио. Люди застраивают леса и холмы, которые раньше принадлежали тануки — енотовидным собакам. Тануки начинают героическую, но обреченную войну за выживание. Для этого они возрождают древнее искусство превращения. С его помощью они могут превращаться даже в людей…


Файл
    Качество: BDRip 1080p (исходник Blu-ray Disc Remux)
    Видео: 1920x1038, 6281 Кбит/сек, 23,976 кадр/сек, AVC, x264, High@L4.1, 1.85:1, 0.131 Бит/[Пиксели*Кадры]
    Аудио 1: AC-3, 192 Кбит/сек, 2 канала(ов), 48,0 КГц - Многоголосый закадровый, Киномания / Русский
    Аудио 2: AC-3, 448 Кбит/сек, 2 канала(ов), 48,0 КГц - Оригинал / Японский
    Субтитры: Русские | Полные
    Форсированные субтитры: Нет
    Чаптеры (Главы): Есть



Автор Рипа: Сообщество:



Format : Matroska
Format version : Version 2
File size : 5.76 GiB
Duration : 1h 59mn
Overall bit rate : 6 923 Kbps
Movie name : Война тануки в периоды Хэйсэй и Помпоко.(1994).BDRip.1080p.[envy]
Encoded date : UTC 2014-10-07 19:24:32
Writing application : mkvmerge v5.8.0 ('No Sleep / Pillow') built on Sep 2 2012 15:37:04
Writing library : libebml v1.2.3 + libmatroska v1.3.0
Video
ID : 1
Format : AVC
Format/Info : Advanced Video Codec
Format profile : High@L4.1
Format settings, CABAC : Yes
Format settings, ReFrames : 4 frames
Codec ID : V_MPEG4/ISO/AVC
Duration : 1h 59mn
Bit rate : 6 281 Kbps
Width : 1 920 pixels
Height : 1 038 pixels
Display aspect ratio : 1.85:1
Frame rate mode : Constant
Frame rate : 23.976 fps
Color space : YUV
Chroma subsampling : 4:2:0
Bit depth : 8 bits
Scan type : Progressive
Bits/(Pixel*Frame) : 0.131
Stream size : 5.12 GiB (89%)
Title : Война тануки в периоды Хэйсэй и Помпоко.(1994).BDRip.1080p.[envy]
Writing library : x264 core 142 r2479 dd79a61
Encoding settings : cabac=1 / ref=4 / deblock=1:0:0 / analyse=0x3:0x113 / me=umh / subme=11 / psy=1 / psy_rd=1.00:0.00 / mixed_ref=1 / me_range=48 / chroma_me=1 / trellis=2 / 8x8dct=1 / cqm=0 / deadzone=21,11 / fast_pskip=0 / chroma_qp_offset=-2 / threads=12 / lookahead_threads=2 / sliced_threads=0 / nr=0 / decimate=1 / interlaced=0 / bluray_compat=0 / constrained_intra=0 / bframes=7 / b_pyramid=2 / b_adapt=2 / b_bias=0 / direct=3 / weightb=1 / open_gop=0 / weightp=2 / keyint=240 / keyint_min=23 / scenecut=40 / intra_refresh=0 / rc=2pass / mbtree=0 / bitrate=6281 / ratetol=2.0 / qcomp=0.60 / qpmin=0 / qpmax=69 / qpstep=4 / cplxblur=20.0 / qblur=0.5 / ip_ratio=1.40 / pb_ratio=1.30 / aq=2:1.00
Language : English
Default : Yes
Forced : No
Audio #1
ID : 2
Format : AC-3
Format/Info : Audio Coding 3
Mode extension : CM (complete main)
Format settings, Endianness : Big
Codec ID : A_AC3
Duration : 1h 59mn
Bit rate mode : Constant
Bit rate : 192 Kbps
Channel(s) : 2 channels
Channel positions : Front: L R
Sampling rate : 48.0 KHz
Bit depth : 16 bits
Compression mode : Lossy
Stream size : 164 MiB (3%)
Title : MVO Kinomania
Default : Yes
Forced : No
Audio #2
ID : 3
Format : AC-3
Format/Info : Audio Coding 3
Mode extension : CM (complete main)
Format settings, Endianness : Big
Codec ID : A_AC3
Duration : 1h 59mn
Bit rate mode : Constant
Bit rate : 448 Kbps
Channel(s) : 2 channels
Channel positions : Front: L R
Sampling rate : 48.0 KHz
Bit depth : 16 bits
Compression mode : Lossy
Stream size : 382 MiB (6%)
Title : Jpn
Language : Japanese
Default : No
Forced : No
Text
ID : 4
Format : UTF-8
Codec ID : S_TEXT/UTF8
Codec ID/Info : UTF-8 Plain Text
Title : full
Language : Russian
Default : No
Forced : No
Menu
00:00:00.000 : en:00:00:00.000
00:00:29.029 : en:00:00:29.029
00:05:19.736 : en:00:05:19.736
00:10:06.272 : en:00:10:06.272
00:14:48.471 : en:00:14:48.471
00:18:43.164 : en:00:18:43.164
00:24:11.700 : en:00:24:11.700
00:28:56.610 : en:00:28:56.610
00:33:02.856 : en:00:33:02.856
00:38:01.237 : en:00:38:01.237
00:43:40.952 : en:00:43:40.952
00:49:48.402 : en:00:49:48.402
00:55:35.332 : en:00:55:35.332
01:00:56.444 : en:01:00:56.444
01:05:40.687 : en:01:05:40.687
01:09:15.985 : en:01:09:15.985
01:16:21.577 : en:01:16:21.577
01:21:44.107 : en:01:21:44.107
01:27:18.275 : en:01:27:18.275
01:33:44.244 : en:01:33:44.244
01:38:34.033 : en:01:38:34.033
01:44:40.524 : en:01:44:40.524
01:50:59.403 : en:01:50:59.403
01:54:44.419 : en:01:54:44.419


#77
Отдельная благодарность HDTRACKER пользователю FREEDONOR за исходный материал!



   Похожие торренты   Торрент   Размер 
В этой теме нет новых непрочитанных сообщений. Война тануки в периоды Хэйсэй и Помпоко / Помпоко: Война тануки / Pom Poko / Heisei tanuki gassen pompo (1994) BDRip-AVC от KinoRay & Sheikn | P, A

97 | 5

2.31 ГБ

В этой теме нет новых непрочитанных сообщений. Война тануки в периоды Хэйсэй и Помпоко / Помпоко: Война тануки / Pom Poko / Heisei tanuki gassen pompo (1994) BDRip-AVC от KinoRay & Sheikn | P, A

67 | 22

2.9 ГБ

В этой теме нет новых непрочитанных сообщений. Значит, война / This Means War (2012) BDRip 1080p от NNNB |Theatrical Cut

282 | 27

7.75 ГБ

В этой теме нет новых непрочитанных сообщений. Пули над Бродвеем / Bullets Over Broadway (1994) BDRip 1080p от NNNB | P, A

49 | 16

7.95 ГБ

В этой теме нет новых непрочитанных сообщений. Первый мститель: Другая война / Captain America: The Winter Soldier (2014) BDRip 720p от NNNB | 60 fps

1093 | 227

6.65 ГБ

В этой теме нет новых непрочитанных сообщений. Легенды осени / Legends of the Fall (1994) BDRip 720p от NNNB | D,P,P2,A

118 | 9

9.78 ГБ

В этой теме нет новых непрочитанных сообщений. Бесшумная война / Тихая война / Безмолвная война / The Silent War (2012) BDRip 720p | L2

3 | 5

5.15 ГБ




Вы не можете начинать темы
Вы не можете отвечать на сообщения
Вы не можете редактировать свои сообщения
Вы не можете удалять свои сообщения
Вы не можете добавлять вложения

Перейти:  
Для Мосгорсуда, Роскомнадзора и рекламодателей: mosgorsud-torrent[собачка]yandex.ru
 Вход
ppkBB3cker v.2 © 2008-2014 @ PPK
[ Time : 0.054s | 15 Queries | GZIP : Off ]

Торрент трекер RUTOR.IN, Не можете зайти на rutor.org? Какой новый адрес рутор? Какое зеркало рутор? Не работает rutor.org и зеркала? Тогда наш торрент специально для вас. Rutor.in неофициальное зеркало rutor. В случае если у Вас заблокирован rutor или вдруг Вы не можете на него зайти, то Вы без труда сможете скачать бесплатно и без рекламы последние новинки кино, игр, сериалов и прочего у нас, на Rutor.in. Не нужно использовать прокси, чтобы зайти на рутор, достаточно воспользоваться нашим ресурсом. Все новые фильмы, игры, сериалы, книги и музыка за 2013 и 2014 годы через торрент бесплатно. Скачивайте фильмы в хорошем качестве, игры для пк, xbox, playstation без регистрации. У нас вы найдете новые Зарубежные сериалы и Русские сериалы 2013, 2014, 2015 годов. Оставайтесь с нами, качайте любимые фильмы, игры, сериалы, книги и музыку.