img image001 image001 image001 image001 image001 image001 image001 image001 image001 image001 image001 image001 image001 image001 image001

Planets Sun Sun Sun
Статистика раздачи
Автор: Nickolas3434 | Размер: 5.76 ГБ | Добавлен: 12 окт 2014
Раздают: 319    Качают: 37
Скачать торрент
Скачать торрент
Описание торрента

СообщениеДобавлено: 12 окт 2014 


#77
Информация о фильме
    Русское название: Небесный замок Лапута
    Оригинальное название: Laputa: Castle in the Sky / Tenku no Shiro Rapyuta
    Год выхода: 1986
    Жанр: аниме, мультфильм, фантастика, фэнтези, приключения, семейный
    Режиссер: Хаяо Миядзаки
    Выпущено: Япония
    Продолжительность: 02:04:33
    Перевод: Дублированный (Ruscico)
    В ролях: Маюми Танака, Кейко Йокодзава, Котое Хатсуи, Тихара Терада, Фудзио Токита, Джим Каммингс, Икиро Нагаи, Хироши Ито, Такуми Камияма, Ёсито Ясухара


Сюжет фильма
    Альтернативная реальность, соответствующая началу XX века. В руках девочки по имени Сита находится Летающий Камень. За ним охотятся агенты правительства и пираты, потому что Камень представляет огромную ценность. Пытаясь скрыться от преследователей, Сита встречает Пазу, своего ровесника, работающего в шахтерском городке. Вместе дети выясняют, что Камень — ключ к таинственному летающему острову Лапуте…


Файл
    Качество: BDRip 1080p (исходник Blu-ray Disc Remux)
    Видео: 1920x1038, 6238 Кбит/сек, 23,976 кадр/сек, AVC, x264, High@L4.1, 1.85:1, 0.131 Бит/[Пиксели*Кадры]
    Аудио 1: AC-3, 192 Кбит/сек, 2 канала(ов), 48,0 КГц - Дублированный, Ruscico / Русский
    Аудио 2: AC-3, 192 Кбит/сек, 2 канала(ов), 48,0 КГц - Оригинал / Японский
    Субтитры: Русские | Полные
    Форсированные субтитры: Нет
    Чаптеры (Главы): Есть



Сэмпл
Автор Рипа: Сообщество:



Format : Matroska
Format version : Version 2
File size : 5.76 GiB
Duration : 2h 4mn
Overall bit rate : 6 625 Kbps
Movie name : Небесный замок Лапута.(1986).BDRip.1080p.[envy]
Encoded date : UTC 2014-10-09 05:58:29
Writing application : mkvmerge v5.8.0 ('No Sleep / Pillow') built on Sep 2 2012 15:37:04
Writing library : libebml v1.2.3 + libmatroska v1.3.0
Video
ID : 1
Format : AVC
Format/Info : Advanced Video Codec
Format profile : High@L4.1
Format settings, CABAC : Yes
Format settings, ReFrames : 4 frames
Codec ID : V_MPEG4/ISO/AVC
Duration : 2h 4mn
Bit rate : 6 238 Kbps
Width : 1 920 pixels
Height : 1 038 pixels
Display aspect ratio : 1.85:1
Frame rate mode : Constant
Frame rate : 23.976 fps
Color space : YUV
Chroma subsampling : 4:2:0
Bit depth : 8 bits
Scan type : Progressive
Bits/(Pixel*Frame) : 0.131
Stream size : 5.32 GiB (92%)
Title : Небесный замок Лапута.(1986).BDRip.1080p.[envy]
Writing library : x264 core 142 r2479 dd79a61
Encoding settings : cabac=1 / ref=4 / deblock=1:0:0 / analyse=0x3:0x113 / me=umh / subme=11 / psy=1 / psy_rd=1.00:0.00 / mixed_ref=1 / me_range=48 / chroma_me=1 / trellis=2 / 8x8dct=1 / cqm=0 / deadzone=21,11 / fast_pskip=0 / chroma_qp_offset=-2 / threads=12 / lookahead_threads=2 / sliced_threads=0 / nr=0 / decimate=1 / interlaced=0 / bluray_compat=0 / constrained_intra=0 / bframes=7 / b_pyramid=2 / b_adapt=2 / b_bias=0 / direct=3 / weightb=1 / open_gop=0 / weightp=2 / keyint=240 / keyint_min=23 / scenecut=40 / intra_refresh=0 / rc=2pass / mbtree=0 / bitrate=6238 / ratetol=2.0 / qcomp=0.60 / qpmin=0 / qpmax=69 / qpstep=4 / cplxblur=20.0 / qblur=0.5 / ip_ratio=1.40 / pb_ratio=1.30 / aq=2:1.00
Language : English
Default : Yes
Forced : No
Audio #1
ID : 2
Format : AC-3
Format/Info : Audio Coding 3
Mode extension : CM (complete main)
Format settings, Endianness : Big
Codec ID : A_AC3
Duration : 2h 4mn
Bit rate mode : Constant
Bit rate : 192 Kbps
Channel(s) : 2 channels
Channel positions : Front: L R
Sampling rate : 48.0 KHz
Bit depth : 16 bits
Compression mode : Lossy
Stream size : 171 MiB (3%)
Title : Dub
Language : Russian
Default : Yes
Forced : No
Audio #2
ID : 3
Format : AC-3
Format/Info : Audio Coding 3
Mode extension : CM (complete main)
Format settings, Endianness : Big
Codec ID : A_AC3
Duration : 2h 4mn
Bit rate mode : Constant
Bit rate : 192 Kbps
Channel(s) : 2 channels
Channel positions : Front: L R
Sampling rate : 48.0 KHz
Bit depth : 16 bits
Compression mode : Lossy
Stream size : 171 MiB (3%)
Title : Jpn
Language : Japanese
Default : No
Forced : No
Text
ID : 4
Format : UTF-8
Codec ID : S_TEXT/UTF8
Codec ID/Info : UTF-8 Plain Text
Title : full
Language : Russian
Default : No
Forced : No
Menu
00:00:00.000 : :Chapter 01
00:03:52.357 : :Chapter 14
00:10:45.478 : :Chapter 30
00:16:03.212 : :Chapter 44
00:21:29.871 : :Chapter 61
00:26:52.319 : :Chapter 79
00:32:27.945 : :Chapter 93
00:37:58.651 : :Chapter 105
00:45:14.336 : :Chapter 118
00:51:47.604 : :Chapter 132
00:56:43.358 : :Chapter 146
01:01:21.886 : :Chapter 162
01:06:16.347 : :Chapter 176
01:12:57.247 : :Chapter 191
01:17:49.456 : :Chapter 201
01:24:00.243 : :Chapter 214
01:28:35.810 : :Chapter 225
01:34:04.346 : :Chapter 237
01:37:38.394 : :Chapter 245
01:41:25.162 : :Chapter 258
01:47:22.644 : :Chapter 274
01:52:14.811 : :Chapter 288
01:57:07.019 : :Chapter 298
02:01:15.601 : :Chapter 307
02:04:32.506 : :Chapter 308


#77



   Похожие торренты   Торрент   Размер 
В этой теме нет новых непрочитанных сообщений. Небесный замок Лапута / Laputa: The Castle in the Sky / Tenku no shiro Rapyuta (1986) BDRip-1080p (Hi10P) | D

18 | 42

4.04 ГБ

В этой теме нет новых непрочитанных сообщений. Небесный замок Лапута / Laputa: The Castle in the Sky / Tenku no shiro Rapyuta (1986) BDRip от VG-Cinema

99 | 14

2.19 ГБ

В этой теме нет новых непрочитанных сообщений. Небесный замок Лапута / Dama Laputa: The Castle in the Sky / Tenkû no shiro Rapyuta (1986) BDRip-AVC | iPad | D,P2

19 | 12

3.1 ГБ

В этой теме нет новых непрочитанных сообщений. Небесный замок Лапута / Tenku no shiro Rapyuta (1986) BDRip от HQCLUB | D | Лицензия

30 | 3

2.18 ГБ

В этой теме нет новых непрочитанных сообщений. Небесный замок Лапута / Laputa Castle in the Sky (1986) HDTVRip

6 | 3

3.32 ГБ

В этой теме нет новых непрочитанных сообщений. Небесный замок Лапута / Laputa Castle in the Sky (1986) DVD5

95 | 3

4.32 ГБ

В этой теме нет новых непрочитанных сообщений. Небесный замок Лапута / Laputa: Castle in the Sky (1986) DVDRip-AVC

105 | 12

1.45 ГБ




Вы не можете начинать темы
Вы не можете отвечать на сообщения
Вы не можете редактировать свои сообщения
Вы не можете удалять свои сообщения
Вы не можете добавлять вложения

Перейти:  
Для Мосгорсуда, Роскомнадзора и рекламодателей: mosgorsud-torrent[собачка]yandex.ru
 Вход
ppkBB3cker v.2 © 2008-2014 @ PPK
[ Time : 0.041s | 16 Queries | GZIP : Off ]

Торрент трекер RUTOR.IN, Не можете зайти на rutor.org? Какой новый адрес рутор? Какое зеркало рутор? Не работает rutor.org и зеркала? Тогда наш торрент специально для вас. Rutor.in неофициальное зеркало rutor. В случае если у Вас заблокирован rutor или вдруг Вы не можете на него зайти, то Вы без труда сможете скачать бесплатно и без рекламы последние новинки кино, игр, сериалов и прочего у нас, на Rutor.in. Не нужно использовать прокси, чтобы зайти на рутор, достаточно воспользоваться нашим ресурсом. Все новые фильмы, игры, сериалы, книги и музыка за 2013 и 2014 годы через торрент бесплатно. Скачивайте фильмы в хорошем качестве, игры для пк, xbox, playstation без регистрации. У нас вы найдете новые Зарубежные сериалы и Русские сериалы 2013, 2014, 2015 годов. Оставайтесь с нами, качайте любимые фильмы, игры, сериалы, книги и музыку.
cron