img image001 image001 image001 image001 image001 image001 image001 image001 image001 image001 image001 image001 image001 image001 image001

Planets Sun Sun Sun
Статистика раздачи
Автор: Nickolas3434 | Размер: 21.68 ГБ | Добавлен: 12 окт 2014
Раздают: 309    Качают: 116
Скачать торрент
Скачать торрент
Описание торрента

СообщениеДобавлено: 12 окт 2014 

[color=#8B1A1A][b]Коллекция произведений Миядзаки Хаяо / Collection of Miyazaki Hayao[/b][/color]
[img]http://4.firepic.org/4/images/2014-10/11/41jhlwyfyriw.png[/img]
[spoiler="Люпен III: Замок Калиостро / Lupin III: The Castle of Cagliostro / Rupan Sansei: Cagliostro no Shiro (1979)"]
[img]http://3.firepic.org/3/images/2014-10/11/by0dlns1501u.png[/img]
Информация о фильме
[b]Название: [/b] [color=darkred]Люпен III: Замок Калиостро[/color]
[b]Оригинальное название: [/b][color=darkblue]Lupin III: The Castle of Cagliostro / Rupan Sansei: Cagliostro no Shiro / Lupin Sansei: Cagliostro no Shiro / Lupin Sansei Movie 02 / 「ルパン三世」 カリオストロの城 [/color]
[b]Страна: [/b] Япония
[b]Год выхода: [/b] 1979
[b]Жанр: [/b] приключения, комедия, фантастика
[b]Режиссер: [/b] [color=darkblue]Миядзаки Хаяо / Miyazaki Hayao / 宮崎駿 [/color]
[b]О фильме: [/b] [color=darkgreen]Знаменитый аферист века Арсен Люпен Третий лихо проворачивает грандиозную кражу на миллионы долларов, после чего узнаёт, что оказавшаяся в его руках добыча - так называемые "козьи деньги", искуснейшая подделка, сфабрикованная в карликовом европейском княжестве Калиостро, правители которого многие века промышляли производством разнообразных фальшивых купюр. Не привыкший проигрывать Люпен направляется в замок князей Калиостро, но поиск денег отходит на второй план, когда он встречает очаровательную княжну Кларисс, принуждаемую жестоким графом Калиостро выйти за него замуж. С верными друзьями метким стрелком Дзигэном и отважным самураем Гоэмоном (а также неотразимой и неприступной красоткой Фудзико на хвосте) Люпену Третьему предстоит раскрыть тайну плутовского княжества и спасти девушку. К несчастью граф Калиостро со своей армией убийц и неугомонный инспектор Интерпола Дзэнигата с отборным отрядом японской полиции имеют на Люпена свои планы...[/color] © Алексей Фадеев, World Art
[b]Студия: [/b] [img]http://i5.imageban.ru/out/2014/10/10/c500cbef5ee35f79380df92bd72ad3fc.jpg[/img]
[b]Продолжительность: [/b] полнометражный фильм, 01:39:28
[b]Перевод: [/b] [color=darkblue]Профессиональный (многоголосый закадровый)[/color] | [color=#666633][b]R·U·S·C·I·C·O[/b][/color]
[b]Субтитры: [/b] русские (софтсаб, *srt) - полные: Ta-kun
[b]Хардсаб: [/b] отсутствует
Файл
[b]Качество: [/b] HDRip [color=gray][by rs.bandito][/color]
[b]Формат: [/b] AVI
[b]Видео: [/b] 720 x 400 (1.80:1), 23.976 fps, XviD build 73 ~1788 kbps avg, 0.259 bit/pixel
[b]Аудио #1:[/b] [color=darkblue]RUS -[/color] 48 kHz, AC3 Dolby Digital, 1/0 (C) ch, ~128 kbps [color=darkblue]| R·U·S·C·I·C·O |[/color]
[b]Аудио #2:[/b] [color=darkblue]JAP -[/color] 48 kHz, AC3 Dolby Digital, 2/0 (L,R) ch, ~192 kbps [color=darkblue]| Оригинал |[/color]
[b]Автор рипа: [/b] [color=darkblue]Miheleniya[/color]
[url=http://firepic.org/?v=2014-10-11_0dm7soexhw53.png][img]http://firepic.org/thumbs/2014-10/11/0dm7soexhw53.png[/img][/url] [url=http://firepic.org/?v=2014-10-11_fjw29gtmo520.png][img]http://firepic.org/thumbs/2014-10/11/fjw29gtmo520.png[/img][/url] [url=http://firepic.org/?v=2014-10-11_o0um20m6lin1.png][img]http://firepic.org/thumbs/2014-10/11/o0um20m6lin1.png[/img][/url] [url=http://firepic.org/?v=2014-10-11_ma8961den6dl.png][img]http://firepic.org/thumbs/2014-10/11/ma8961den6dl.png[/img][/url] [url=http://firepic.org/?v=2014-10-11_cxqrpq6paiga.png][img]http://firepic.org/thumbs/2014-10/11/cxqrpq6paiga.png[/img][/url]
[url=http://firepic.org/?v=2014-10-11_ubl3pcfpael1.png][img]http://firepic.org/thumbs/2014-10/11/ubl3pcfpael1.png[/img][/url] [url=http://firepic.org/?v=2014-10-11_ipdspgfdwxtd.png][img]http://firepic.org/thumbs/2014-10/11/ipdspgfdwxtd.png[/img][/url] [url=http://firepic.org/?v=2014-10-11_t9d2femhqfws.png][img]http://firepic.org/thumbs/2014-10/11/t9d2femhqfws.png[/img][/url] [url=http://firepic.org/?v=2014-10-11_kbtomjx3n2l3.png][img]http://firepic.org/thumbs/2014-10/11/kbtomjx3n2l3.png[/img][/url] [url=http://firepic.org/?v=2014-10-11_8r7uepxyn2pt.png][img]http://firepic.org/thumbs/2014-10/11/8r7uepxyn2pt.png[/img][/url]
[spoiler="MediaInfo"]Общее
Полное имя : Lupin III The Castle of CagliostroLupin_III_The_Castle_of_Cagliostro_HDRip_DUB.avi
Формат : AVI
Формат/Информация : Audio Video Interleave
Размер файла : 1,47 Гбайт
Продолжительность : 1 ч. 39 м.
Общий поток : 2122 Кбит/сек
Название фильма : Lupin III: The Castle of Cagliostro
Программа кодирования : VirtualDubMod 1.5.10.2 (build 2540/release)
Библиотека кодирования : VirtualDubMod build 2540/release
Видео
Идентификатор : 0
Формат : MPEG-4 Visual
Профиль формата : Advanced Simple@L5
Параметр BVOP формата : 1
Параметр QPel формата : Нет
Параметр GMC формата : Без точки перехода
Параметр матрицы формата : Выборочная
Идентификатор кодека : XVID
Идентификатор кодека/Подсказка : XviD
Продолжительность : 1 ч. 39 м.
Битрейт : 1788 Кбит/сек
Ширина : 720 пикс.
Высота : 400 пикс.
Соотношение сторон : 16:9
Частота кадров : 23,976 кадр/сек
Цветовое пространство : YUV
Подвыборка цветности : 4:2:0
Битовая глубина : 8 бит
Тип развёртки : Прогрессивная
Метод сжатия : С потерями
Бит/(Пиксели*Кадры) : 0.259
Размер потока : 1,24 Гбайт (84%)
Библиотека кодирования : XviD 73
Аудио #1
Идентификатор : 1
Формат : AC-3
Формат/Информация : Audio Coding 3
Расширение режима : CM (complete main)
Идентификатор кодека : 2000
Продолжительность : 1 ч. 39 м.
Вид битрейта : Постоянный
Битрейт : 128 Кбит/сек
Канал(ы) : 1 канал
Расположение каналов : Front: C
Частота : 48,0 КГц
Битовая глубина : 16 бит
Метод сжатия : С потерями
Размер потока : 91,1 Мбайт (6%)
Выравнивание : Разделение по промежуткам
Продолжительность промежутка : 42 мс. (1,00 видеокадр)
Время предзагрузки промежутка : 500 ms
Заголовок : Russian
Аудио #2
Идентификатор : 2
Формат : AC-3
Формат/Информация : Audio Coding 3
Расширение режима : CM (complete main)
Идентификатор кодека : 2000
Продолжительность : 1 ч. 39 м.
Вид битрейта : Постоянный
Битрейт : 192 Кбит/сек
Канал(ы) : 2 канала(ов)
Расположение каналов : Front: L R
Частота : 48,0 КГц
Битовая глубина : 16 бит
Метод сжатия : С потерями
Размер потока : 137 Мбайт (9%)
Выравнивание : Разделение по промежуткам
Продолжительность промежутка : 42 мс. (1,00 видеокадр)
Время предзагрузки промежутка : 500 ms
Заголовок : Japanese
[/spoiler][/spoiler][spoiler="Навсикая из долины ветров / Nausicaa from the Valley of the Wind / Kaze no Tani no Nausicaa (1984)"]
[img]http://4.firepic.org/4/images/2014-10/11/2ituy9y3gnm2.png[/img]
Информация о фильме
[b]Название: [/b] [color=darkred]Навсикая из долины ветров[/color]
[b]Оригинальное название: [/b][color=darkblue]Nausicaa from the Valley of the Wind / Kaze no Tani no Nausicaa / 風の谷のナウシカ[/color]
[b]Страна: [/b] Япония
[b]Год выхода: [/b] 1984
[b]Жанр: [/b] приключения, фэнтези, фантастика, драма
[b]Режиссер: [/b] [color=darkblue]Миядзаки Хаяо / Miyazaki Hayao / 宮崎駿 [/color]
[b]О фильме: [/b] [color=darkgreen]В будущем человечество, столетиями безоглядно эксплуатировавшее природу, пало жертвой своей гордыни. Землю постигла ужасная экологическая катастрофа, процветающие когда-то промышленные цивилизации обратились в прах, а поверхность планеты покрыло гигантское море Леса, испускающее в атмосферу ядовитые споры своих растений. Оставшимся в живых людям приходится жить в тени Леса и его чудовищных насекомообразных обитателей, пытаясь не допустить распостранения вредоносной растительности. Мирная Долина Ветров - одно из царств, образовавшихся на руинах прежних государств. Жители Долины обожают своего доброго правителя и его дочь Навсикаю, необычную девочку, находящую общий язык с исполинскими насекомыми Леса, странными порождениями нарушенной экосистемы. Но безмятежное существование Долины Ветров нарушается, когда маленькая страна становится пешкой в играх крупных воинственных соседей, сражающихся за остатки драгоценных природных ресурсов планеты. Тем не менее, скрытому потенциалу Навсикаи ещё предстоит раскрыться, и юной принцессе, возможно, удастся изменить судьбы мира...[/color]
[b]Студия: [/b] [img]http://firepic.org/images/2014-09/27/8ktk8p3d40wz.jpg[/img]
[b]Продолжительность: [/b] полнометражный фильм, 01:57:01
[b]Перевод: [/b] [color=darkblue]Профессиональный (полное дублирование)[/color] | [color=#666633][b]R·U·S·C·I·C·O[/b][/color]
[b]Субтитры: [/b] русские (софтсаб, *srt) - полные: AlKnave; RUSCICO
[b]Хардсаб: [/b] отсутствует
Файл
[b]Качество: [/b] HDRip [color=gray][by rs.bandito][/color]
[b]Формат: [/b] AVI
[b]Видео: [/b] 720 x 384 (1.88:1), 23.976 fps, XviD build 73 ~2234 kbps avg, 0.337 bit/pixel
[b]Аудио #1:[/b] [color=darkblue]RUS -[/color] 48 kHz, AC3 Dolby Digital, 2/0 (L,R) ch, ~192 kbps [color=darkblue]| R·U·S·C·I·C·O |[/color]
[b]Аудио #2:[/b] [color=darkblue]JAP -[/color] 48 kHz, AC3 Dolby Digital, 2/0 (L,R) ch, ~192 kbps [color=darkblue]| Оригинал |[/color]
[b]Автор рипа: [/b] [color=darkblue]BAXTOR5[/color]
[url=http://firepic.org/?v=2.2014-10-03_091828a3a9j7.png][img]http://2.firepic.org/2/thumbs/2014-10/03/091828a3a9j7.png[/img][/url] [url=http://firepic.org/?v=2.2014-10-03_dwhkyqzsl0u9.png][img]http://2.firepic.org/2/thumbs/2014-10/03/dwhkyqzsl0u9.png[/img][/url] [url=http://firepic.org/?v=2.2014-10-03_gszgzvayu2wm.png][img]http://2.firepic.org/2/thumbs/2014-10/03/gszgzvayu2wm.png[/img][/url] [url=http://firepic.org/?v=2.2014-10-03_ywfzvowyb40z.png][img]http://2.firepic.org/2/thumbs/2014-10/03/ywfzvowyb40z.png[/img][/url] [url=http://firepic.org/?v=2.2014-10-03_kyhvx2t4kia0.png][img]http://2.firepic.org/2/thumbs/2014-10/03/kyhvx2t4kia0.png[/img][/url]
[url=http://firepic.org/?v=2.2014-10-03_5bxo3k1r7hrk.png][img]http://2.firepic.org/2/thumbs/2014-10/03/5bxo3k1r7hrk.png[/img][/url] [url=http://firepic.org/?v=2.2014-10-03_4glxfb84isqa.png][img]http://2.firepic.org/2/thumbs/2014-10/03/4glxfb84isqa.png[/img][/url] [url=http://firepic.org/?v=2.2014-10-03_ckljfm8ufhlx.png][img]http://2.firepic.org/2/thumbs/2014-10/03/ckljfm8ufhlx.png[/img][/url] [url=http://firepic.org/?v=2.2014-10-03_dh5vry24l75j.png][img]http://2.firepic.org/2/thumbs/2014-10/03/dh5vry24l75j.png[/img][/url] [url=http://firepic.org/?v=2.2014-10-03_1d2hd5snf4xk.png][img]http://2.firepic.org/2/thumbs/2014-10/03/1d2hd5snf4xk.png[/img][/url]
[spoiler="MediaInfo"]Общее
Полное имя : Nausicaa of the Valley of WindNausicaa_of_the_Valley_of_the_Wind_HDRip_DUB.avi
Формат : AVI
Формат/Информация : Audio Video Interleave
Профиль формата : OpenDML
Размер файла : 2,15 Гбайт
Продолжительность : 1 ч. 57 м.
Общий поток : 2636 Кбит/сек
Название фильма : Nausicaa of the Valley of the Wind
Программа кодирования : VirtualDubMod 1.5.10.3 | www.virtualdub-fr.org || (build 2550/release)
Видео
Идентификатор : 0
Формат : MPEG-4 Visual
Профиль формата : Advanced Simple@L5
Параметр BVOP формата : 1
Параметр QPel формата : Нет
Параметр GMC формата : Без точки перехода
Параметр матрицы формата : Выборочная
Идентификатор кодека : XVID
Идентификатор кодека/Подсказка : XviD
Продолжительность : 1 ч. 57 м.
Битрейт : 2234 Кбит/сек
Ширина : 720 пикс.
Высота : 384 пикс.
Соотношение сторон : 1,875
Частота кадров : 23,976 кадр/сек
Цветовое пространство : YUV
Подвыборка цветности : 4:2:0
Битовая глубина : 8 бит
Тип развёртки : Прогрессивная
Метод сжатия : С потерями
Бит/(Пиксели*Кадры) : 0.337
Размер потока : 1,83 Гбайт (85%)
Библиотека кодирования : XviD 73
Аудио #1
Идентификатор : 1
Формат : AC-3
Формат/Информация : Audio Coding 3
Расширение режима : CM (complete main)
Идентификатор кодека : 2000
Продолжительность : 1 ч. 57 м.
Вид битрейта : Постоянный
Битрейт : 192 Кбит/сек
Канал(ы) : 2 канала(ов)
Расположение каналов : Front: L R
Частота : 48,0 КГц
Битовая глубина : 16 бит
Метод сжатия : С потерями
Размер потока : 161 Мбайт (7%)
Выравнивание : Разделение по промежуткам
Продолжительность промежутка : 42 мс. (1,00 видеокадр)
Время предзагрузки промежутка : 500 ms
Заголовок : Russian
Аудио #2
Идентификатор : 2
Формат : AC-3
Формат/Информация : Audio Coding 3
Расширение режима : CM (complete main)
Идентификатор кодека : 2000
Продолжительность : 1 ч. 57 м.
Вид битрейта : Постоянный
Битрейт : 192 Кбит/сек
Канал(ы) : 2 канала(ов)
Расположение каналов : Front: L R
Частота : 48,0 КГц
Битовая глубина : 16 бит
Метод сжатия : С потерями
Размер потока : 161 Мбайт (7%)
Выравнивание : Разделение по промежуткам
Продолжительность промежутка : 42 мс. (1,00 видеокадр)
Время предзагрузки промежутка : 500 ms
Заголовок : Japanese
[/spoiler][/spoiler][spoiler="Великий детектив Холмс - Фильм / Meitantei Homuzu - The Movie / Gekijouban Meitantei Holmes (1984)"]
[img]http://firepic.org/images/2014-10/11/3a9oih750whl.png[/img]
Информация о фильме
[b]Название: [/b] [color=darkred]Великий детектив Холмс - Фильм[/color]
[b]Оригинальное название: [/b][color=darkblue]Meitantei Homuzu - The Movie / Gekijouban Meitantei Holmes / 劇場版 名探偵ホームズ[/color]
[b]Страна: [/b] Япония
[b]Год выхода: [/b] 1984
[b]Жанр: [/b] приключения, комедия, детектив
[b]Режиссер: [/b] [color=darkblue]Миядзаки Хаяо / Miyazaki Hayao / 宮崎駿 [/color]
[b]О фильме: [/b] [color=darkgreen]Действие в сериале происходит в викторианской Англии, населённой исключительно собаками, каковыми являются и Шерлок Холмс, и доктор Ватсон, и их злейший враг профессор Мориарти. Холмс тут значительно моложе и подвижнее, чем у Конан Дойля, а миссис Хадсон - вообще молоденькая барышня, играющая немалую роль в происходящих событиях. Большие или маленькие, все дела важны для легендарного детектива. Когда воображающий себя преступным гением профессор Мориарти с двумя лакеями рыщет по улицам Лондона, великому сыщику необходимо продемонстрировать знаменитую проницательность, чтобы сорвать замыслы своего архиврага. Надёжный партнёр Холмса в разоблачении преступников доктор Ватсон и тяжёлый на подъём, но представительный инспектор Лестрэйд всегда готовы протянуть ему лапу помощи, если того требует сложное и запутанное дело.[/color] © Алексей Фадеев, World Art
[b]Студия: [/b] [img]http://firepic.org/images/2014-10/11/mftl0ojfl7h5.jpg[/img]
[b]Продолжительность: [/b] полнометражный фильм, 00:45:58
[b]Перевод: [/b] [color=darkblue]Любительский (одноголосый)[/color] | [color=#666633][b]Mokona[/b][/color]
[b]Субтитры: [/b] русские (софтсаб, *srt) - полные: TolstiyMob
[b]Хардсаб: [/b] отсутствует
Файл
[b]Качество: [/b] HDRip [color=gray][by rs.bandito][/color]
[b]Формат: [/b] AVI
[b]Видео: [/b] 704 x 544 (1.29:1), 23.976 fps, XviD build 73 ~1799 kbps avg, 0.196 bit/pixel
[b]Аудио #1:[/b] [color=darkblue]RUS -[/color] 48 kHz, AC3 Dolby Digital, 2/0 (L,R) ch, ~192 kbps [color=darkblue]| Mokona |[/color]
[b]Аудио #2:[/b] [color=darkblue]JAP -[/color] 48 kHz, AC3 Dolby Digital, 2/0 (L,R) ch, ~192 kbps [color=darkblue]| Оригинал |[/color]
[b]Автор рипа: [/b] [color=darkblue]Miheleniya[/color]
[url=http://firepic.org/?v=2014-10-11_8643nj8ndbga.png][img]http://firepic.org/thumbs/2014-10/11/8643nj8ndbga.png[/img][/url] [url=http://firepic.org/?v=2014-10-11_x67obgupbr2n.png][img]http://firepic.org/thumbs/2014-10/11/x67obgupbr2n.png[/img][/url] [url=http://firepic.org/?v=2014-10-11_nu7lc1j8ubk4.png][img]http://firepic.org/thumbs/2014-10/11/nu7lc1j8ubk4.png[/img][/url] [url=http://firepic.org/?v=2014-10-11_9x8czdn02agl.png][img]http://firepic.org/thumbs/2014-10/11/9x8czdn02agl.png[/img][/url] [url=http://firepic.org/?v=2014-10-11_qi3ivg4sr6j1.png][img]http://firepic.org/thumbs/2014-10/11/qi3ivg4sr6j1.png[/img][/url]
[url=http://firepic.org/?v=2014-10-11_43ex23u5sy86.png][img]http://firepic.org/thumbs/2014-10/11/43ex23u5sy86.png[/img][/url] [url=http://firepic.org/?v=2014-10-11_x7wyd8fl1n7h.png][img]http://firepic.org/thumbs/2014-10/11/x7wyd8fl1n7h.png[/img][/url] [url=http://firepic.org/?v=2014-10-11_pocyf7s9bfz4.png][img]http://firepic.org/thumbs/2014-10/11/pocyf7s9bfz4.png[/img][/url] [url=http://firepic.org/?v=2014-10-11_1ulorgco41r2.png][img]http://firepic.org/thumbs/2014-10/11/1ulorgco41r2.png[/img][/url] [url=http://firepic.org/?v=2014-10-11_63rjzoqe3t49.png][img]http://firepic.org/thumbs/2014-10/11/63rjzoqe3t49.png[/img][/url]
[spoiler="MediaInfo"]Общее
Полное имя : Gekijouban Meitantei HolmesGekijouban_Meitantei_Holmes_HDRip_VO.avi
Формат : AVI
Формат/Информация : Audio Video Interleave
Размер файла : 723 Мбайт
Продолжительность : 45 м.
Общий поток : 2197 Кбит/сек
Название фильма : Gekijouban Meitantei Holmes
Программа кодирования : VirtualDubMod 1.5.10.2 (build 2540/release)
Библиотека кодирования : VirtualDubMod build 2540/release
Видео
Идентификатор : 0
Формат : MPEG-4 Visual
Профиль формата : Advanced Simple@L5
Параметр BVOP формата : 1
Параметр QPel формата : Нет
Параметр GMC формата : Без точки перехода
Параметр матрицы формата : Выборочная
Идентификатор кодека : XVID
Идентификатор кодека/Подсказка : XviD
Продолжительность : 45 м.
Битрейт : 1799 Кбит/сек
Ширина : 704 пикс.
Высота : 544 пикс.
Соотношение сторон : 1,294
Частота кадров : 23,976 кадр/сек
Цветовое пространство : YUV
Подвыборка цветности : 4:2:0
Битовая глубина : 8 бит
Тип развёртки : Прогрессивная
Метод сжатия : С потерями
Бит/(Пиксели*Кадры) : 0.196
Размер потока : 592 Мбайт (82%)
Библиотека кодирования : XviD 73
Аудио #1
Идентификатор : 1
Формат : AC-3
Формат/Информация : Audio Coding 3
Расширение режима : CM (complete main)
Идентификатор кодека : 2000
Продолжительность : 45 м.
Вид битрейта : Постоянный
Битрейт : 192 Кбит/сек
Канал(ы) : 2 канала(ов)
Расположение каналов : Front: L R
Частота : 48,0 КГц
Битовая глубина : 16 бит
Метод сжатия : С потерями
Размер потока : 63,1 Мбайт (9%)
Выравнивание : Разделение по промежуткам
Продолжительность промежутка : 42 мс. (1,00 видеокадр)
Время предзагрузки промежутка : 500 ms
Заголовок : Russian
Аудио #2
Идентификатор : 2
Формат : AC-3
Формат/Информация : Audio Coding 3
Расширение режима : CM (complete main)
Идентификатор кодека : 2000
Продолжительность : 45 м.
Вид битрейта : Постоянный
Битрейт : 192 Кбит/сек
Канал(ы) : 2 канала(ов)
Расположение каналов : Front: L R
Частота : 48,0 КГц
Битовая глубина : 16 бит
Метод сжатия : С потерями
Размер потока : 63,1 Мбайт (9%)
Выравнивание : Разделение по промежуткам
Продолжительность промежутка : 42 мс. (1,00 видеокадр)
Время предзагрузки промежутка : 500 ms
Заголовок : Japanese
[/spoiler][/spoiler][spoiler="Небесный замок Лапута / Castle in the Sky Laputa / Tenkuu no Shiro Laputa / Laputa: The Castle in the Sky (1986)"]
[img]http://i68.fastpic.ru/big/2014/1010/23/0e2e9a88d60ad9063264fd1b451c2c23.png[/img]
Информация о фильме
[b]Название: [/b] [color=darkred]Небесный замок Лапута[/color]
[b]Оригинальное название: [/b][color=darkblue]Castle in the Sky Laputa / Tenkuu no Shiro Laputa / Laputa: The Castle in the Sky / 天空の城ラピュタ[/color]
[b]Страна: [/b] Япония
[b]Год выхода: [/b] 1986
[b]Жанр: [/b] приключения, сказка, романтика
[b]Режиссер: [/b] [color=darkblue]Миядзаки Хаяо / Miyazaki Hayao / 宮崎駿 [/color]
[b]О фильме: [/b] [color=darkgreen]Альтернативная реальность, напоминающая викторианскую Европу начала бурного развития научно-технического прогресса. Юный Падзу, подмастерье инженера, отвечающего за исправную работу подъёмника шахты, случайно знакомится с загадочной девочкой с косичкой, буквально упавшей с неба прямо ему в объятия. Оказывется, за незнакомкой гонятся по пятам воздушные пираты, армия и правительственные агенты, пытаясь заполучить хранящийся у неё Летающий Камень, который является ключом к мифическому летающему острову, некогда принадлежащему давно погибшей древней цивилизации. Так начинаются увлекательные приключения двух детей, в ходе которых они открывают тайну Небесного замка Лапуты... [/color]
[b]Студия: [/b] [img]http://i4.imageban.ru/out/2014/10/10/81efc098c93ed22e944eb3b1cbd4cfa2.jpg[/img]
[b]Продолжительность: [/b] полнометражный фильм, 02:04:33
[b]Перевод: [/b] [color=darkblue]Профессиональный (полное дублирование)[/color] | [color=#666633][b]R·U·S·C·I·C·O[/b][/color]
[b]Субтитры: [/b] русские (софтсаб, *srt) - полные: RUSCICO
[b]Хардсаб: [/b] отсутствует
Файл
[b]Качество: [/b] HDRip [color=gray][by rs.bandito][/color]
[b]Формат: [/b] AVI
[b]Видео: [/b] 720 x 384 (1.88:1), 23.976 fps, XviD build 73 ~2070 kbps avg, 0.312 bit/pixel
[b]Аудио #1:[/b] [color=darkblue]RUS -[/color] 48 kHz, AC3 Dolby Digital, 2/0 (L,R) ch, ~192 kbps [color=darkblue]| R·U·S·C·I·C·O |[/color]
[b]Аудио #2:[/b] [color=darkblue]JAP -[/color] 48 kHz, AC3 Dolby Digital, 2/0 (L,R) ch, ~192 kbps [color=darkblue]| Оригинал |[/color]
[b]Автор рипа: [/b] [color=darkblue]Miheleniya[/color]
[url=http://firepic.org/?v=3.2014-10-11_2ogm2y7b4al7.png][img]http://3.firepic.org/3/thumbs/2014-10/11/2ogm2y7b4al7.png[/img][/url] [url=http://firepic.org/?v=3.2014-10-11_afbpmx9v3uy0.png][img]http://3.firepic.org/3/thumbs/2014-10/11/afbpmx9v3uy0.png[/img][/url] [url=http://firepic.org/?v=3.2014-10-11_3za2n6vfk3sb.png][img]http://3.firepic.org/3/thumbs/2014-10/11/3za2n6vfk3sb.png[/img][/url] [url=http://firepic.org/?v=3.2014-10-11_qockpogpth56.png][img]http://3.firepic.org/3/thumbs/2014-10/11/qockpogpth56.png[/img][/url] [url=http://firepic.org/?v=3.2014-10-11_64rxnfxf6y7j.png][img]http://3.firepic.org/3/thumbs/2014-10/11/64rxnfxf6y7j.png[/img][/url]
[url=http://firepic.org/?v=3.2014-10-11_tso4k762l9b2.png][img]http://3.firepic.org/3/thumbs/2014-10/11/tso4k762l9b2.png[/img][/url] [url=http://firepic.org/?v=3.2014-10-11_mh7pc3k6j9ip.png][img]http://3.firepic.org/3/thumbs/2014-10/11/mh7pc3k6j9ip.png[/img][/url] [url=http://firepic.org/?v=3.2014-10-11_woklt49xd6s6.png][img]http://3.firepic.org/3/thumbs/2014-10/11/woklt49xd6s6.png[/img][/url] [url=http://firepic.org/?v=3.2014-10-11_hq794ef1ths4.png][img]http://3.firepic.org/3/thumbs/2014-10/11/hq794ef1ths4.png[/img][/url] [url=http://firepic.org/?v=3.2014-10-11_d3mho1sybcs5.png][img]http://3.firepic.org/3/thumbs/2014-10/11/d3mho1sybcs5.png[/img][/url]
[spoiler="MediaInfo"]Общее
Полное имя : Castle in the Sky LaputaCastle_in_the_Sky_Laputa_HDRip_DUB.avi
Формат : AVI
Формат/Информация : Audio Video Interleave
Профиль формата : OpenDML
Размер файла : 2,15 Гбайт
Продолжительность : 2 ч. 4 м.
Общий поток : 2472 Кбит/сек
Название фильма : Castle in the Sky Laputa
Программа кодирования : VirtualDubMod 1.5.10.2 (build 2540/release)
Библиотека кодирования : VirtualDubMod build 2540/release
Видео
Идентификатор : 0
Формат : MPEG-4 Visual
Профиль формата : Advanced Simple@L5
Параметр BVOP формата : 1
Параметр QPel формата : Нет
Параметр GMC формата : Без точки перехода
Параметр матрицы формата : Выборочная
Идентификатор кодека : XVID
Идентификатор кодека/Подсказка : XviD
Продолжительность : 2 ч. 4 м.
Битрейт : 2070 Кбит/сек
Ширина : 720 пикс.
Высота : 384 пикс.
Соотношение сторон : 1,875
Частота кадров : 23,976 кадр/сек
Цветовое пространство : YUV
Подвыборка цветности : 4:2:0
Битовая глубина : 8 бит
Тип развёртки : Прогрессивная
Метод сжатия : С потерями
Бит/(Пиксели*Кадры) : 0.312
Размер потока : 1,80 Гбайт (84%)
Библиотека кодирования : XviD 73
Аудио #1
Идентификатор : 1
Формат : AC-3
Формат/Информация : Audio Coding 3
Расширение режима : CM (complete main)
Идентификатор кодека : 2000
Продолжительность : 2 ч. 4 м.
Вид битрейта : Постоянный
Битрейт : 192 Кбит/сек
Канал(ы) : 2 канала(ов)
Расположение каналов : Front: L R
Частота : 48,0 КГц
Битовая глубина : 16 бит
Метод сжатия : С потерями
Размер потока : 171 Мбайт (8%)
Выравнивание : Разделение по промежуткам
Продолжительность промежутка : 42 мс. (1,00 видеокадр)
Время предзагрузки промежутка : 500 ms
Заголовок : Russian
Аудио #2
Идентификатор : 2
Формат : AC-3
Формат/Информация : Audio Coding 3
Расширение режима : CM (complete main)
Идентификатор кодека : 2000
Продолжительность : 2 ч. 4 м.
Вид битрейта : Постоянный
Битрейт : 192 Кбит/сек
Канал(ы) : 2 канала(ов)
Расположение каналов : Front: L R
Частота : 48,0 КГц
Битовая глубина : 16 бит
Метод сжатия : С потерями
Размер потока : 171 Мбайт (8%)
Выравнивание : Разделение по промежуткам
Продолжительность промежутка : 42 мс. (1,00 видеокадр)
Время предзагрузки промежутка : 500 ms
Заголовок : Japanese
[/spoiler][/spoiler][spoiler="Мой сосед Тоторо / Tonari no Totoro / My Neighbor Totoro (1988)"]
[img]http://i5.imageban.ru/out/2014/10/10/673d85e72e094c72b7c403054f476f28.png[/img]
Информация о фильме
[b]Название: [/b] [color=darkred]Мой сосед Тоторо[/color]
[b]Оригинальное название: [/b][color=darkblue]Tonari no Totoro / My Neighbor Totoro / となりのトトロ[/color]
[b]Страна: [/b] Япония
[b]Год выхода: [/b] 1988
[b]Жанр: [/b] приключения, комедия, сказка, драма
[b]Режиссер: [/b] [color=darkblue]Миядзаки Хаяо / Miyazaki Hayao / 宮崎駿 [/color]
[b]О фильме: [/b] [color=darkgreen]Япония, пятидесятые годы прошлого века. Переехав в деревню, две маленькие сестры Сацуки (старшая) и Мэй (младшая) глубоко внутри дерева обнаружили необыкновенный, чудесный мир, населённый Тоторо, очаровательными пушистыми созданиями, с которыми у девочек сразу же завязалась дружба. Одни из них большие, другие совсем крохотные, но у всех у них огромное, доброе сердце и магические способности совершать необыкновенные вещи, наподобие полётов над горами или взращивания огромного дерева за одну ночь! Но увидеть этих существ могут лишь дети, которые им приглянутся... Подружившись с сёстрами, Тоторо не только устраивают им воздушную экскурсию по своим владениям, но и помогают Мэй повидаться с лежащей в больнице мамой.[/color]
[b]Студия: [/b] [img]http://i4.imageban.ru/out/2014/10/10/81efc098c93ed22e944eb3b1cbd4cfa2.jpg[/img]
[b]Продолжительность: [/b] полнометражный фильм, 01:26:25
[b]Перевод: [/b] [color=darkblue]Профессиональное (многоголосый закадровый)[/color] | [color=#666633][b]R·U·S·C·I·C·O[/b][/color]
[b]Субтитры: [/b] русские (софтсаб, *srt) - полные: RUSCICO
[b]Хардсаб: [/b] отсутствует
Файл
[b]Качество: [/b] HDRip [color=gray][by rs.bandito][/color]
[b]Формат: [/b] AVI
[b]Видео: [/b] 720 x 384 (1.88:1), 23.976 fps, XviD build 73 ~2043 kbps avg, 0.308 bit/pixel
[b]Аудио #1:[/b] [color=darkblue]RUS -[/color] 48 kHz, AC3 Dolby Digital, 2/0 (L,R) ch, ~192 kbps [color=darkblue]| R·U·S·C·I·C·O |[/color]
[b]Аудио #2:[/b] [color=darkblue]JAP -[/color] 48 kHz, AC3 Dolby Digital, 2/0 (L,R) ch, ~192 kbps [color=darkblue]| Оригинал |[/color]
[b]Автор рипа: [/b] [color=darkblue]Miheleniya[/color]
[url=http://firepic.org/?v=3.2014-10-11_nwjr8nlkikxu.png][img]http://3.firepic.org/3/thumbs/2014-10/11/nwjr8nlkikxu.png[/img][/url] [url=http://firepic.org/?v=3.2014-10-11_94143jq3lf9f.png][img]http://3.firepic.org/3/thumbs/2014-10/11/94143jq3lf9f.png[/img][/url] [url=http://firepic.org/?v=3.2014-10-11_x4tdnfrap94k.png][img]http://3.firepic.org/3/thumbs/2014-10/11/x4tdnfrap94k.png[/img][/url] [url=http://firepic.org/?v=3.2014-10-11_ibu6wtzpjtit.png][img]http://3.firepic.org/3/thumbs/2014-10/11/ibu6wtzpjtit.png[/img][/url] [url=http://firepic.org/?v=3.2014-10-11_0a5f9a42u8fz.png][img]http://3.firepic.org/3/thumbs/2014-10/11/0a5f9a42u8fz.png[/img][/url]
[url=http://firepic.org/?v=3.2014-10-11_ogene8xm0hiv.png][img]http://3.firepic.org/3/thumbs/2014-10/11/ogene8xm0hiv.png[/img][/url] [url=http://firepic.org/?v=3.2014-10-11_28aqitqjowio.png][img]http://3.firepic.org/3/thumbs/2014-10/11/28aqitqjowio.png[/img][/url] [url=http://firepic.org/?v=3.2014-10-11_pa9mgy1m4eq2.png][img]http://3.firepic.org/3/thumbs/2014-10/11/pa9mgy1m4eq2.png[/img][/url] [url=http://firepic.org/?v=3.2014-10-11_2410cm10m2qv.png][img]http://3.firepic.org/3/thumbs/2014-10/11/2410cm10m2qv.png[/img][/url] [url=http://firepic.org/?v=3.2014-10-11_l86ztd9eclk2.png][img]http://3.firepic.org/3/thumbs/2014-10/11/l86ztd9eclk2.png[/img][/url]
[spoiler="MediaInfo"]Общее
Полное имя : Tonari no TotoroTonari_no_Totoro_HDRip_MVO.avi
Формат : AVI
Формат/Информация : Audio Video Interleave
Размер файла : 1,47 Гбайт
Продолжительность : 1 ч. 26 м.
Общий поток : 2442 Кбит/сек
Название фильма : Tonari no Totoro
Программа кодирования : VirtualDubMod 1.5.10.2 (build 2540/release)
Библиотека кодирования : VirtualDubMod build 2540/release
Видео
Идентификатор : 0
Формат : MPEG-4 Visual
Профиль формата : Advanced Simple@L5
Параметр BVOP формата : 1
Параметр QPel формата : Нет
Параметр GMC формата : Без точки перехода
Параметр матрицы формата : Выборочная
Идентификатор кодека : XVID
Идентификатор кодека/Подсказка : XviD
Продолжительность : 1 ч. 26 м.
Битрейт : 2043 Кбит/сек
Ширина : 720 пикс.
Высота : 384 пикс.
Соотношение сторон : 1,875
Частота кадров : 23,976 кадр/сек
Цветовое пространство : YUV
Подвыборка цветности : 4:2:0
Битовая глубина : 8 бит
Тип развёртки : Прогрессивная
Метод сжатия : С потерями
Бит/(Пиксели*Кадры) : 0.308
Размер потока : 1,23 Гбайт (84%)
Библиотека кодирования : XviD 73
Аудио #1
Идентификатор : 1
Формат : AC-3
Формат/Информация : Audio Coding 3
Расширение режима : CM (complete main)
Идентификатор кодека : 2000
Продолжительность : 1 ч. 26 м.
Вид битрейта : Постоянный
Битрейт : 192 Кбит/сек
Канал(ы) : 2 канала(ов)
Расположение каналов : Front: L R
Частота : 48,0 КГц
Битовая глубина : 16 бит
Метод сжатия : С потерями
Размер потока : 119 Мбайт (8%)
Выравнивание : Разделение по промежуткам
Продолжительность промежутка : 42 мс. (1,00 видеокадр)
Время предзагрузки промежутка : 500 ms
Заголовок : Russian
Аудио #2
Идентификатор : 2
Формат : AC-3
Формат/Информация : Audio Coding 3
Расширение режима : CM (complete main)
Идентификатор кодека : 2000
Продолжительность : 1 ч. 26 м.
Вид битрейта : Постоянный
Битрейт : 192 Кбит/сек
Канал(ы) : 2 канала(ов)
Расположение каналов : Front: L R
Частота : 48,0 КГц
Битовая глубина : 16 бит
Метод сжатия : С потерями
Размер потока : 119 Мбайт (8%)
Выравнивание : Разделение по промежуткам
Продолжительность промежутка : 42 мс. (1,00 видеокадр)
Время предзагрузки промежутка : 500 ms
Заголовок : Japanese
[/spoiler][/spoiler][spoiler="Ведьмина служба доставки / Majo no Takkyuubin / Kiki's Delivery Service (1989)"]
[img]http://i4.imageban.ru/out/2014/10/10/e2d5698e690c9ec89136bd2ee6407b45.png[/img]
Информация о фильме
[b]Название: [/b] [color=darkred]Ведьмина служба доставки[/color]
[b]Оригинальное название: [/b][color=darkblue]Majo no Takkyuubin / Kiki's Delivery Service / 魔女の宅急便[/color]
[b]Страна: [/b] Япония
[b]Год выхода: [/b] 1989
[b]Жанр: [/b] приключения, комедия, драма, сказка
[b]Режиссер: [/b] [color=darkblue]Миядзаки Хаяо / Miyazaki Hayao / 宮崎駿 [/color]
[b]О фильме: [/b] [color=darkgreen]По правилам жизни ведьм, каждая из них, достигнув возраста 13-ти лет, должна найти город, где нет нечистой силы, и прожить в нем ровно год. Молодая ведьма (язык не поворачивается назвать её девочкой - ведьма всё-таки) Кики и ее котенок Дзидзи находят такой приморский городок, где и знакомится с добрым пекарем, который помогает ей начать собственное дело - Экстренную Службу Доставки. Работа знакомит Кики с множеством различных людей, предоставляя возможность обрести новых друзей и совершить массу всевозможных проделок.[/color]
[b]Студия: [/b] [img]http://i4.imageban.ru/out/2014/10/10/81efc098c93ed22e944eb3b1cbd4cfa2.jpg[/img]
[b]Продолжительность: [/b] полнометражный фильм, 01:43:02
[b]Перевод: [/b] [color=darkblue]Профессиональный (полное дублирование)[/color] | [color=#666633][b]Сонотек[/b][/color]
[b]Субтитры: [/b] русские (софтсаб, *srt) - полные: Сонотек; toph
[b]Хардсаб: [/b] отсутствует
Файл
[b]Качество: [/b] HDRip [color=gray][by rs.bandito][/color]
[b]Формат: [/b] AVI
[b]Видео: [/b] 720 x 384 (1.88:1), 23.976 fps, XviD build 73 ~1654 kbps avg, 0.250 bit/pixel
[b]Аудио #1:[/b] [color=darkblue]RUS -[/color] 48 kHz, AC3 Dolby Digital, 2/0 (L,R) ch, ~192 kbps [color=darkblue]| R·U·S·C·I·C·O |[/color]
[b]Аудио #2:[/b] [color=darkblue]JAP -[/color] 48 kHz, AC3 Dolby Digital, 2/0 (L,R) ch, ~192 kbps [color=darkblue]| Оригинал |[/color]
[b]Автор рипа: [/b] [color=darkblue]Miheleniya[/color]
[url=http://firepic.org/?v=4.2014-10-11_10gbglrf9ilz.png][img]http://4.firepic.org/4/thumbs/2014-10/11/10gbglrf9ilz.png[/img][/url] [url=http://firepic.org/?v=4.2014-10-11_l3k2xz2ksab0.png][img]http://4.firepic.org/4/thumbs/2014-10/11/l3k2xz2ksab0.png[/img][/url] [url=http://firepic.org/?v=4.2014-10-11_m2461iv1ow8z.png][img]http://4.firepic.org/4/thumbs/2014-10/11/m2461iv1ow8z.png[/img][/url] [url=http://firepic.org/?v=4.2014-10-11_ecynonygyq4o.png][img]http://4.firepic.org/4/thumbs/2014-10/11/ecynonygyq4o.png[/img][/url] [url=http://firepic.org/?v=4.2014-10-11_he7ig7v91o4q.png][img]http://4.firepic.org/4/thumbs/2014-10/11/he7ig7v91o4q.png[/img][/url]
[url=http://firepic.org/?v=4.2014-10-11_xohbe1fhosv3.png][img]http://4.firepic.org/4/thumbs/2014-10/11/xohbe1fhosv3.png[/img][/url] [url=http://firepic.org/?v=4.2014-10-11_h2rxv65z2d7y.png][img]http://4.firepic.org/4/thumbs/2014-10/11/h2rxv65z2d7y.png[/img][/url] [url=http://firepic.org/?v=4.2014-10-11_y5odx61bc3dh.png][img]http://4.firepic.org/4/thumbs/2014-10/11/y5odx61bc3dh.png[/img][/url] [url=http://firepic.org/?v=4.2014-10-11_tip92a192hwn.png][img]http://4.firepic.org/4/thumbs/2014-10/11/tip92a192hwn.png[/img][/url] [url=http://firepic.org/?v=4.2014-10-11_drc5u9sj38mq.png][img]http://4.firepic.org/4/thumbs/2014-10/11/drc5u9sj38mq.png[/img][/url]
[spoiler="MediaInfo"]Общее
Полное имя : Majo no TakkyuubinMajo_no_Takkyuubin_HDRip_DUB.avi
Формат : AVI
Формат/Информация : Audio Video Interleave
Размер файла : 1,48 Гбайт
Продолжительность : 1 ч. 43 м.
Общий поток : 2052 Кбит/сек
Название фильма : Majo no Takkyuubin
Программа кодирования : VirtualDubMod 1.5.10.2 (build 2540/release)
Библиотека кодирования : VirtualDubMod build 2540/release
Видео
Идентификатор : 0
Формат : MPEG-4 Visual
Профиль формата : Advanced Simple@L5
Параметр BVOP формата : 1
Параметр QPel формата : Нет
Параметр GMC формата : Без точки перехода
Параметр матрицы формата : Выборочная
Идентификатор кодека : XVID
Идентификатор кодека/Подсказка : XviD
Продолжительность : 1 ч. 43 м.
Битрейт : 1654 Кбит/сек
Ширина : 720 пикс.
Высота : 384 пикс.
Соотношение сторон : 1,875
Частота кадров : 23,976 кадр/сек
Цветовое пространство : YUV
Подвыборка цветности : 4:2:0
Битовая глубина : 8 бит
Тип развёртки : Прогрессивная
Метод сжатия : С потерями
Бит/(Пиксели*Кадры) : 0.250
Размер потока : 1,19 Гбайт (81%)
Библиотека кодирования : XviD 73
Аудио #1
Идентификатор : 1
Формат : AC-3
Формат/Информация : Audio Coding 3
Расширение режима : CM (complete main)
Идентификатор кодека : 2000
Продолжительность : 1 ч. 43 м.
Вид битрейта : Постоянный
Битрейт : 192 Кбит/сек
Канал(ы) : 2 канала(ов)
Расположение каналов : Front: L R
Частота : 48,0 КГц
Битовая глубина : 16 бит
Метод сжатия : С потерями
Размер потока : 141 Мбайт (9%)
Выравнивание : Разделение по промежуткам
Продолжительность промежутка : 42 мс. (1,00 видеокадр)
Время предзагрузки промежутка : 500 ms
Заголовок : Russian
Аудио #2
Идентификатор : 2
Формат : AC-3
Формат/Информация : Audio Coding 3
Расширение режима : CM (complete main)
Идентификатор кодека : 2000
Продолжительность : 1 ч. 43 м.
Вид битрейта : Постоянный
Битрейт : 192 Кбит/сек
Канал(ы) : 2 канала(ов)
Расположение каналов : Front: L R
Частота : 48,0 КГц
Битовая глубина : 16 бит
Метод сжатия : С потерями
Размер потока : 142 Мбайт (9%)
Выравнивание : Разделение по промежуткам
Продолжительность промежутка : 42 мс. (1,00 видеокадр)
Время предзагрузки промежутка : 500 ms
Заголовок : Japanese
[/spoiler][/spoiler][spoiler="Порко Россо / Porco Rosso / Kurenai no Buta / The Scarlet Pig / Crimson Pig (1992)"]
[img]http://i6.imageban.ru/out/2014/10/10/b271fd4aac0ced5099a42fb9ff5ab8f1.png[/img]
Информация о фильме
[b]Название: [/b] [color=darkred]Порко Россо[/color]
[b]Оригинальное название: [/b][color=darkblue]Porco Rosso / Kurenai no Buta / The Scarlet Pig / Crimson Pig / 紅の豚[/color]
[b]Страна: [/b] Япония
[b]Год выхода: [/b] 1992
[b]Жанр: [/b] приключения, история, комедия
[b]Режиссер: [/b] [color=darkblue]Миядзаки Хаяо / Miyazaki Hayao / 宮崎駿 [/color]
[b]О фильме: [/b] [color=darkgreen]Адриатика, двадцатые годы прошлого столетия. Итальянский пилот Марко Паготт храбро сражался в годы первой мировой войны. Однако после войны он разочаровался в военном деле, себе и людях, превратившись в самую настоящую свинью. В конце двадцатых, когда в Италии к власти пришли фашисты во главе с Муссолини, Марко, назвавший себя Порко Россо ("Малиновая свинья"), начал работать спасателем по найму в небе Адриатики. Его гидросамолет наводит ужас на воздушных пиратов, однако это не приносит Порко удовлетворения и душевного спокойствия...[/color]
[b]Студия: [/b] [img]http://i4.imageban.ru/out/2014/10/10/81efc098c93ed22e944eb3b1cbd4cfa2.jpg[/img]
[b]Продолжительность: [/b] полнометражный фильм, 01:33:19
[b]Перевод: [/b] [color=darkblue]Профессиональный (многоголосый закадровый)[/color] | [color=#666633][b]R·U·S·C·I·C·O[/b][/color]
[b]Субтитры: [/b] русские (софтсаб, *srt) - полные: RUSCICO; форсированные: Captions
[b]Хардсаб: [/b] отсутствует
Файл
[b]Качество: [/b] HDRip [color=gray][by rs.bandito][/color]
[b]Формат: [/b] AVI
[b]Видео: [/b] 720 x 384 (1.88:1), 23.976 fps, XviD build 73 ~1847 kbps avg, 0.279 bit/pixel
[b]Аудио #1:[/b] [color=darkblue]RUS -[/color] 48 kHz, AC3 Dolby Digital, 2/0 (L,R) ch, ~192 kbps [color=darkblue]| R·U·S·C·I·C·O |[/color]
[b]Аудио #2:[/b] [color=darkblue]JAP -[/color] 48 kHz, AC3 Dolby Digital, 2/0 (L,R) ch, ~192 kbps [color=darkblue]| Оригинал |[/color]
[b]Автор рипа: [/b] [color=darkblue]BAXTOR5[/color]
[url=http://firepic.org/?v=4.2014-10-11_zrit2afodb0b.png][img]http://4.firepic.org/4/thumbs/2014-10/11/zrit2afodb0b.png[/img][/url] [url=http://firepic.org/?v=4.2014-10-11_28mq1lgv83ls.png][img]http://4.firepic.org/4/thumbs/2014-10/11/28mq1lgv83ls.png[/img][/url] [url=http://firepic.org/?v=4.2014-10-11_le86rq5g8d1y.png][img]http://4.firepic.org/4/thumbs/2014-10/11/le86rq5g8d1y.png[/img][/url] [url=http://firepic.org/?v=4.2014-10-11_e6di7djyawf2.png][img]http://4.firepic.org/4/thumbs/2014-10/11/e6di7djyawf2.png[/img][/url] [url=http://firepic.org/?v=4.2014-10-11_8ln6eynp3lk2.png][img]http://4.firepic.org/4/thumbs/2014-10/11/8ln6eynp3lk2.png[/img][/url]
[url=http://firepic.org/?v=4.2014-10-11_fryjhnodrwau.png][img]http://4.firepic.org/4/thumbs/2014-10/11/fryjhnodrwau.png[/img][/url] [url=http://firepic.org/?v=4.2014-10-11_7yvt5mqfzljo.png][img]http://4.firepic.org/4/thumbs/2014-10/11/7yvt5mqfzljo.png[/img][/url] [url=http://firepic.org/?v=4.2014-10-11_zyha0r2f9qpg.png][img]http://4.firepic.org/4/thumbs/2014-10/11/zyha0r2f9qpg.png[/img][/url] [url=http://firepic.org/?v=4.2014-10-11_5jlqj7n9s746.png][img]http://4.firepic.org/4/thumbs/2014-10/11/5jlqj7n9s746.png[/img][/url] [url=http://firepic.org/?v=4.2014-10-11_n9vyi0n8ho8y.png][img]http://4.firepic.org/4/thumbs/2014-10/11/n9vyi0n8ho8y.png[/img][/url]
[spoiler="MediaInfo"]Общее
Полное имя : Porco RossoPorco_Rosso_HDRip_MVO.avi
Формат : AVI
Формат/Информация : Audio Video Interleave
Размер файла : 1,46 Гбайт
Продолжительность : 1 ч. 33 м.
Общий поток : 2245 Кбит/сек
Название фильма : Porco Rosso
Программа кодирования : VirtualDubMod 1.5.10.3 | www.virtualdub-fr.org || (build 2550/release)
Видео
Идентификатор : 0
Формат : MPEG-4 Visual
Профиль формата : Advanced Simple@L5
Параметр BVOP формата : 1
Параметр QPel формата : Нет
Параметр GMC формата : Без точки перехода
Параметр матрицы формата : Выборочная
Идентификатор кодека : XVID
Идентификатор кодека/Подсказка : XviD
Продолжительность : 1 ч. 33 м.
Битрейт : 1847 Кбит/сек
Ширина : 720 пикс.
Высота : 384 пикс.
Соотношение сторон : 1,875
Частота кадров : 23,976 кадр/сек
Цветовое пространство : YUV
Подвыборка цветности : 4:2:0
Битовая глубина : 8 бит
Тип развёртки : Прогрессивная
Метод сжатия : С потерями
Бит/(Пиксели*Кадры) : 0.279
Размер потока : 1,20 Гбайт (82%)
Библиотека кодирования : XviD 73
Аудио #1
Идентификатор : 1
Формат : AC-3
Формат/Информация : Audio Coding 3
Расширение режима : CM (complete main)
Идентификатор кодека : 2000
Продолжительность : 1 ч. 33 м.
Вид битрейта : Постоянный
Битрейт : 192 Кбит/сек
Канал(ы) : 2 канала(ов)
Расположение каналов : Front: L R
Частота : 48,0 КГц
Битовая глубина : 16 бит
Метод сжатия : С потерями
Размер потока : 128 Мбайт (9%)
Выравнивание : Разделение по промежуткам
Продолжительность промежутка : 42 мс. (1,00 видеокадр)
Время предзагрузки промежутка : 500 ms
Заголовок : Russian
Аудио #2
Идентификатор : 2
Формат : AC-3
Формат/Информация : Audio Coding 3
Расширение режима : CM (complete main)
Идентификатор кодека : 2000
Продолжительность : 1 ч. 33 м.
Вид битрейта : Постоянный
Битрейт : 192 Кбит/сек
Канал(ы) : 2 канала(ов)
Расположение каналов : Front: L R
Частота : 48,0 КГц
Битовая глубина : 16 бит
Метод сжатия : С потерями
Размер потока : 128 Мбайт (9%)
Выравнивание : Разделение по промежуткам
Продолжительность промежутка : 42 мс. (1,00 видеокадр)
Время предзагрузки промежутка : 500 ms
Заголовок : Japanese
[/spoiler][/spoiler][spoiler="Принцесса Мононоке / Princess Mononoke / Mononoke Hime (1997)"]
[img]http://i5.imageban.ru/out/2014/10/10/8c553c4bc6ae6c82a6c829f4c40d04dd.png[/img]
Информация о фильме
[b]Название: [/b] [color=darkred]Принцесса Мононоке[/color]
[b]Оригинальное название: [/b][color=darkblue]Princess Mononoke / Mononoke Hime / もののけ姫[/color]
[b]Страна: [/b] Япония
[b]Год выхода: [/b] 1997
[b]Жанр: [/b] приключения, фэнтези, драма
[b]Режиссер: [/b] [color=darkblue]Миядзаки Хаяо / Miyazaki Hayao / 宮崎駿 [/color]
[b]О фильме: [/b] [color=darkgreen]Средневековая Япония, середина XV века. В стране пылает междоусобная война. Молодой воин по имени Аситака из племени эмиси отправляется в лес великого божества Сисигами, чтобы очиститься от проклятия, перешедшее на него от обезумевшего Бога Кабанов. Произошло это, когда Аситака для спасения своей деревни вынужден был убить его. Необходимо торопиться, проклятье медленно, но верно убивает юного воина. На границе леса он находит поселение сталеваров, возглавляемое харизматичной Эбоси-годзэн. Вырубание леса для сталеваров – необходимый элемент производственного цикла. Им необходимо топливо. Благодаря производимому ими металлу и изготовляемому из него огнестрельному оружию они могут сохранить независимость от окружающих феодалов. Поселение Эбоси - прибежище прокаженных и беглых преступников. Людям противостоят разумные животные, населяющие леса, и их божества во главе с Богиней-волчицей и её воспитанницей - Сан, Принцессой-мононокэ ("мононокэ" по-японски - "разгневанный дух"). И те, и другие защищают свои интересы. И ни тем, ни другим просто некуда отступать. Третья сила в конфликте - шпионы императора, желающие использовать ситуацию, чтобы заполучить голову Сисигами, которая, по древней легенде, может дать бессмертие ее обладателю. Героизм и предательство, любовь и ненависть, извечная вражда и вновь зарождающееся доверие - в этом фильме есть всё.[/color]
[b]Студия: [/b] [img]http://i4.imageban.ru/out/2014/10/10/81efc098c93ed22e944eb3b1cbd4cfa2.jpg[/img]
[b]Продолжительность: [/b] полнометражный фильм, 02:13:22
[b]Перевод: [/b] [color=darkblue]Профессиональный (полное дублирование)[/color] | [color=#666633][b]Reanimedia[/b][/color]
[b]Субтитры: [/b] русские (софтсаб, *srt) - полные
[b]Хардсаб: [/b] отсутствует
Файл
[b]Качество: [/b] HDRip [color=gray][by rs.bandito][/color]
[b]Формат: [/b] AVI
[b]Видео: [/b] 720 x 384 (1.88:1), 23.976 fps, XviD build 73 ~1913 kbps avg, 0.289 bit/pixel
[b]Аудио #1:[/b] [color=darkblue]RUS -[/color] 48 kHz, AC3 Dolby Digital, 2/0 (L,R) ch, ~192 kbps [color=darkblue]| Reanimedia |[/color]
[b]Аудио #2:[/b] [color=darkblue]JAP -[/color] 48 kHz, AC3 Dolby Digital, 2/0 (L,R) ch, ~192 kbps [color=darkblue]| Оригинал |[/color]
[b]Автор рипа: [/b] [color=darkblue]BAXTOR5[/color]
[url=http://firepic.org/?v=4.2014-10-11_wvd68eysbav6.png][img]http://4.firepic.org/4/thumbs/2014-10/11/wvd68eysbav6.png[/img][/url] [url=http://firepic.org/?v=4.2014-10-11_zq3uwa34hral.png][img]http://4.firepic.org/4/thumbs/2014-10/11/zq3uwa34hral.png[/img][/url] [url=http://firepic.org/?v=4.2014-10-11_pzweojzrexv4.png][img]http://4.firepic.org/4/thumbs/2014-10/11/pzweojzrexv4.png[/img][/url] [url=http://firepic.org/?v=4.2014-10-11_fw41sthkl278.png][img]http://4.firepic.org/4/thumbs/2014-10/11/fw41sthkl278.png[/img][/url] [url=http://firepic.org/?v=4.2014-10-11_3z10h2lwr916.png][img]http://4.firepic.org/4/thumbs/2014-10/11/3z10h2lwr916.png[/img][/url]
[url=http://firepic.org/?v=4.2014-10-11_hqmle9fjv9ae.png][img]http://4.firepic.org/4/thumbs/2014-10/11/hqmle9fjv9ae.png[/img][/url] [url=http://firepic.org/?v=4.2014-10-11_sho40l23bs2i.png][img]http://4.firepic.org/4/thumbs/2014-10/11/sho40l23bs2i.png[/img][/url] [url=http://firepic.org/?v=4.2014-10-11_jc61awic0ug8.png][img]http://4.firepic.org/4/thumbs/2014-10/11/jc61awic0ug8.png[/img][/url] [url=http://firepic.org/?v=4.2014-10-11_zqsyrwgzb0yn.png][img]http://4.firepic.org/4/thumbs/2014-10/11/zqsyrwgzb0yn.png[/img][/url] [url=http://firepic.org/?v=4.2014-10-11_2qojixslsjme.png][img]http://4.firepic.org/4/thumbs/2014-10/11/2qojixslsjme.png[/img][/url]
[spoiler="MediaInfo"]Общее
Полное имя : Princess MononokePrincess_Mononoke_HDRip_DUB.avi
Формат : AVI
Формат/Информация : Audio Video Interleave
Профиль формата : OpenDML
Размер файла : 2,16 Гбайт
Продолжительность : 2 ч. 13 м.
Общий поток : 2315 Кбит/сек
Программа кодирования : VirtualDubMod 1.5.10.2 (build 2540/release)
Библиотека кодирования : VirtualDubMod build 2540/release
Видео
Идентификатор : 0
Формат : MPEG-4 Visual
Профиль формата : Advanced Simple@L5
Параметр BVOP формата : 1
Параметр QPel формата : Нет
Параметр GMC формата : Без точки перехода
Параметр матрицы формата : Выборочная
Идентификатор кодека : XVID
Идентификатор кодека/Подсказка : XviD
Продолжительность : 2 ч. 13 м.
Битрейт : 1913 Кбит/сек
Ширина : 720 пикс.
Высота : 384 пикс.
Соотношение сторон : 1,875
Частота кадров : 23,976 кадр/сек
Цветовое пространство : YUV
Подвыборка цветности : 4:2:0
Битовая глубина : 8 бит
Тип развёртки : Прогрессивная
Метод сжатия : С потерями
Бит/(Пиксели*Кадры) : 0.289
Размер потока : 1,78 Гбайт (83%)
Библиотека кодирования : XviD 73
Аудио #1
Идентификатор : 1
Формат : AC-3
Формат/Информация : Audio Coding 3
Расширение режима : CM (complete main)
Идентификатор кодека : 2000
Продолжительность : 2 ч. 13 м.
Вид битрейта : Постоянный
Битрейт : 192 Кбит/сек
Канал(ы) : 2 канала(ов)
Расположение каналов : Front: L R
Частота : 48,0 КГц
Битовая глубина : 16 бит
Метод сжатия : С потерями
Размер потока : 183 Мбайт (8%)
Выравнивание : Разделение по промежуткам
Продолжительность промежутка : 42 мс. (1,00 видеокадр)
Время предзагрузки промежутка : 500 ms
Заголовок : Russian
Аудио #2
Идентификатор : 2
Формат : AC-3
Формат/Информация : Audio Coding 3
Расширение режима : CM (complete main)
Идентификатор кодека : 2000
Продолжительность : 2 ч. 13 м.
Вид битрейта : Постоянный
Битрейт : 192 Кбит/сек
Канал(ы) : 2 канала(ов)
Расположение каналов : Front: L R
Частота : 48,0 КГц
Битовая глубина : 16 бит
Метод сжатия : С потерями
Размер потока : 183 Мбайт (8%)
Выравнивание : Разделение по промежуткам
Продолжительность промежутка : 42 мс. (1,00 видеокадр)
Время предзагрузки промежутка : 500 ms
Заголовок : Japanese
[/spoiler][/spoiler][spoiler="Унесённые призраками / Spirited Away / Sen to Chihiro no Kamikakushi (2001)"]
[img]http://i6.imageban.ru/out/2014/10/10/087e371200b30ec7e89e01a84432b730.png[/img]
Информация о фильме
[b]Название: [/b] [color=darkred]Унесённые призраками[/color]
[b]Оригинальное название: [/b][color=darkblue]Spirited Away / Sen to Chihiro no Kamikakushi / 千と千尋の神隠し[/color]
[b]Страна: [/b] Япония
[b]Год выхода: [/b] 2001
[b]Жанр: [/b] приключения, сказка, драма
[b]Режиссер: [/b] [color=darkblue]Миядзаки Хаяо / Miyazaki Hayao / 宮崎駿 [/color]
[b]О фильме: [/b] [color=darkgreen]Маленькая Тихиро вместе с мамой и папой переезжают в новый дом. Заблудившись по дороге, они оказываются в странном пустынном городе, где их ждет великолепный пир. Родители с жадностью набрасываются на еду и к ужасу девочки превращаются в свиней, став пленниками злой колдуньи Юбабы, властительницы таинственного мира древних богов и могущественных духов.
Теперь, оказавшись одна среди магических существ и загадочных видений, отважная Тихиро должна придумать, как избавить своих родителей от чар коварной старухи и спастись из пугающего царства призраков…[/color]
[b]Студия: [/b] [img]http://i4.imageban.ru/out/2014/10/10/81efc098c93ed22e944eb3b1cbd4cfa2.jpg[/img]
[b]Продолжительность: [/b] полнометражный фильм, 02:04:32
[b]Перевод: [/b] [color=darkblue]Профессиональный (полное дублирование)[/color] | [color=#666633][b]Невафильм[/b][/color]
[b]Субтитры: [/b] русские (софтсаб, *srt) - полные: Невафильм
[b]Хардсаб: [/b] отсутствует
Файл
[b]Качество: [/b] HDRip [color=gray][by rs.bandito][/color]
[b]Формат: [/b] AVI
[b]Видео: [/b] 720 x 384 (1.88:1), 23.976 fps, XviD build 73 ~2072 kbps avg, 0.313 bit/pixel
[b]Аудио #1:[/b] [color=darkblue]RUS -[/color] 48 kHz, AC3 Dolby Digital, 2/0 (L,R) ch, ~192 kbps [color=darkblue]| Невафильм |[/color]
[b]Аудио #2:[/b] [color=darkblue]JAP -[/color] 48 kHz, AC3 Dolby Digital, 2/0 (L,R) ch, ~192 kbps [color=darkblue]| Оригинал |[/color]
[b]Автор рипа: [/b] [color=darkblue]BAXTOR5[/color]
[url=http://firepic.org/?v=4.2014-10-11_dolnkf9ml8cj.png][img]http://4.firepic.org/4/thumbs/2014-10/11/dolnkf9ml8cj.png[/img][/url] [url=http://firepic.org/?v=4.2014-10-11_3l2n5fmwerui.png][img]http://4.firepic.org/4/thumbs/2014-10/11/3l2n5fmwerui.png[/img][/url] [url=http://firepic.org/?v=4.2014-10-11_umkyi9olnzyx.png][img]http://4.firepic.org/4/thumbs/2014-10/11/umkyi9olnzyx.png[/img][/url] [url=http://firepic.org/?v=4.2014-10-11_5xagucqnoh1j.png][img]http://4.firepic.org/4/thumbs/2014-10/11/5xagucqnoh1j.png[/img][/url] [url=http://firepic.org/?v=4.2014-10-11_md6rvq1f3a4a.png][img]http://4.firepic.org/4/thumbs/2014-10/11/md6rvq1f3a4a.png[/img][/url]
[url=http://firepic.org/?v=4.2014-10-11_0hm8b03ya9jc.png][img]http://4.firepic.org/4/thumbs/2014-10/11/0hm8b03ya9jc.png[/img][/url] [url=http://firepic.org/?v=4.2014-10-11_oxqwoz0rvqcb.png][img]http://4.firepic.org/4/thumbs/2014-10/11/oxqwoz0rvqcb.png[/img][/url] [url=http://firepic.org/?v=4.2014-10-11_gh5gb6gjhsgi.png][img]http://4.firepic.org/4/thumbs/2014-10/11/gh5gb6gjhsgi.png[/img][/url] [url=http://firepic.org/?v=4.2014-10-11_s08t8hvm6c9j.png][img]http://4.firepic.org/4/thumbs/2014-10/11/s08t8hvm6c9j.png[/img][/url] [url=http://firepic.org/?v=4.2014-10-11_382on5pucj2d.png][img]http://4.firepic.org/4/thumbs/2014-10/11/382on5pucj2d.png[/img][/url]
[spoiler="MediaInfo"]Общее
Полное имя : Spirited AwaySpirited_Away_HDRip_DUB.avi
Формат : AVI
Формат/Информация : Audio Video Interleave
Профиль формата : OpenDML
Размер файла : 2,15 Гбайт
Продолжительность : 2 ч. 4 м.
Общий поток : 2474 Кбит/сек
Название фильма : Spirited Away
Программа кодирования : VirtualDubMod 1.5.10.3 | www.virtualdub-fr.org || (build 2550/release)
Видео
Идентификатор : 0
Формат : MPEG-4 Visual
Профиль формата : Advanced Simple@L5
Параметр BVOP формата : 1
Параметр QPel формата : Нет
Параметр GMC формата : Без точки перехода
Параметр матрицы формата : Выборочная
Идентификатор кодека : XVID
Идентификатор кодека/Подсказка : XviD
Продолжительность : 2 ч. 4 м.
Битрейт : 2072 Кбит/сек
Ширина : 720 пикс.
Высота : 384 пикс.
Соотношение сторон : 1,875
Частота кадров : 23,976 кадр/сек
Цветовое пространство : YUV
Подвыборка цветности : 4:2:0
Битовая глубина : 8 бит
Тип развёртки : Прогрессивная
Метод сжатия : С потерями
Бит/(Пиксели*Кадры) : 0.313
Размер потока : 1,80 Гбайт (84%)
Библиотека кодирования : XviD 73
Аудио #1
Идентификатор : 1
Формат : AC-3
Формат/Информация : Audio Coding 3
Расширение режима : CM (complete main)
Идентификатор кодека : 2000
Продолжительность : 2 ч. 4 м.
Вид битрейта : Постоянный
Битрейт : 192 Кбит/сек
Канал(ы) : 2 канала(ов)
Расположение каналов : Front: L R
Частота : 48,0 КГц
Битовая глубина : 16 бит
Метод сжатия : С потерями
Размер потока : 171 Мбайт (8%)
Выравнивание : Разделение по промежуткам
Продолжительность промежутка : 42 мс. (1,00 видеокадр)
Время предзагрузки промежутка : 500 ms
Заголовок : Russian
Аудио #2
Идентификатор : 2
Формат : AC-3
Формат/Информация : Audio Coding 3
Расширение режима : CM (complete main)
Идентификатор кодека : 2000
Продолжительность : 2 ч. 4 м.
Вид битрейта : Постоянный
Битрейт : 192 Кбит/сек
Канал(ы) : 2 канала(ов)
Расположение каналов : Front: L R
Частота : 48,0 КГц
Битовая глубина : 16 бит
Метод сжатия : С потерями
Размер потока : 171 Мбайт (8%)
Выравнивание : Разделение по промежуткам
Продолжительность промежутка : 42 мс. (1,00 видеокадр)
Время предзагрузки промежутка : 500 ms
Заголовок : Japanese
[/spoiler][/spoiler][spoiler="Ходячий замок / Howl's Moving Castle / Howl no Ugoku Shiro / Hauru no ugoku shiro (2004)"]
[img]http://i4.imageban.ru/out/2014/10/10/f7a93ad7491880f5e230aabe0ce776e3.png[/img]
Информация о фильме
[b]Название: [/b] [color=darkred]Ходячий замок[/color]
[b]Оригинальное название: [/b][color=darkblue]Howl's Moving Castle / Howl no Ugoku Shiro / Hauru no ugoku shiro / ハウルの動く城[/color]
[b]Страна: [/b] Япония
[b]Год выхода: [/b] 2004
[b]Жанр: [/b] сказка, приключения, романтика, драма
[b]Режиссер: [/b] [color=darkblue]Миядзаки Хаяо / Miyazaki Hayao / 宮崎駿 [/color]
[b]О фильме: [/b] [color=darkgreen]Действие фильма происходит в сказочном мире, напоминающем Европу 19-го века, где магия идёт рука об руку с техническим прогрессом. Скромная жизнь рано осиротевшей шляпницы Софи полностью изменилась, когда в окрестностях её города появился шагающий замок таинственного волшебника Хаула, известного своими "похищениями" девичьих сердец. Спасённая этим голубоглазым красавцем от приставаний двух солдафонов, она полюбила его с первого взгляда, однако волнующая прогулка с ним стоила юной шляпнице её красоты и молодости, отнятых чарами ревнивой Ведьмы из Пустоши. Шокирующее превращение из восемнадцатилетней девушки в дряхлую старуху заставило Софи покинуть родной дом и отправиться на поиски заколдовавшей её Ведьмы, чтобы та вернула ей нормальный вид. Попав по дороге внутрь шагающего замка Хаула, девушка-старушка осталась жить с хозяином и другими обитателями этого гигантского сооружения на курьих ножках, обретя в них семью, а взамен подарив им тепло и мудрость своего любящего сердца...[/color]
[b]Студия: [/b] [img]http://i4.imageban.ru/out/2014/10/10/81efc098c93ed22e944eb3b1cbd4cfa2.jpg[/img]
[b]Продолжительность: [/b] полнометражный фильм, 01:59:09
[b]Перевод: [/b] [color=darkblue]Профессиональный (полное дублирование)[/color] | [color=#666633][b]ОРТ[/b][/color]
[b]Субтитры: [/b] русские (софтсаб, *srt) - полные: ОРТ; CP Digital
[b]Хардсаб: [/b] отсутствует
Файл
[b]Качество: [/b] HDRip [color=gray][by rs.bandito][/color]
[b]Формат: [/b] AVI
[b]Видео: [/b] 720 x 384 (1.88:1), 23.976 fps, XviD build 73 ~2186 kbps avg, 0.330 bit/pixel
[b]Аудио #1:[/b] [color=darkblue]RUS -[/color] 48 kHz, AC3 Dolby Digital, 2/0 (L,R) ch, ~192 kbps [color=darkblue]| ОРТ |[/color]
[b]Аудио #2:[/b] [color=darkblue]JAP -[/color] 48 kHz, AC3 Dolby Digital, 2/0 (L,R) ch, ~192 kbps [color=darkblue]| Оригинал |[/color]
[b]Автор рипа: [/b] [color=darkblue]BAXTOR5[/color]
[url=http://firepic.org/?v=4.2014-10-11_h6mkesd97g9w.png][img]http://4.firepic.org/4/thumbs/2014-10/11/h6mkesd97g9w.png[/img][/url] [url=http://firepic.org/?v=4.2014-10-11_805w70qxpoa5.png][img]http://4.firepic.org/4/thumbs/2014-10/11/805w70qxpoa5.png[/img][/url] [url=http://firepic.org/?v=4.2014-10-11_asm25b9zni56.png][img]http://4.firepic.org/4/thumbs/2014-10/11/asm25b9zni56.png[/img][/url] [url=http://firepic.org/?v=4.2014-10-11_l43i02571ysx.png][img]http://4.firepic.org/4/thumbs/2014-10/11/l43i02571ysx.png[/img][/url] [url=http://firepic.org/?v=4.2014-10-11_x0kdok8p4kgy.png][img]http://4.firepic.org/4/thumbs/2014-10/11/x0kdok8p4kgy.png[/img][/url]
[url=http://firepic.org/?v=4.2014-10-11_meoznivybo8a.png][img]http://4.firepic.org/4/thumbs/2014-10/11/meoznivybo8a.png[/img][/url] [url=http://firepic.org/?v=4.2014-10-11_f287qtdp4h5e.png][img]http://4.firepic.org/4/thumbs/2014-10/11/f287qtdp4h5e.png[/img][/url] [url=http://firepic.org/?v=4.2014-10-11_fj9pqw2uar9i.png][img]http://4.firepic.org/4/thumbs/2014-10/11/fj9pqw2uar9i.png[/img][/url] [url=http://firepic.org/?v=4.2014-10-11_dwkrtlwlit2y.png][img]http://4.firepic.org/4/thumbs/2014-10/11/dwkrtlwlit2y.png[/img][/url] [url=http://firepic.org/?v=4.2014-10-11_c6e7c9ahi0xy.png][img]http://4.firepic.org/4/thumbs/2014-10/11/c6e7c9ahi0xy.png[/img][/url]
[spoiler="MediaInfo"]Общее
Полное имя : Howl's Moving CastleHowl's_Moving_Castle_HDRip_DUB.avi
Формат : AVI
Формат/Информация : Audio Video Interleave
Профиль формата : OpenDML
Размер файла : 2,15 Гбайт
Продолжительность : 1 ч. 59 м.
Общий поток : 2588 Кбит/сек
Название фильма : Howl's Moving Castle
Программа кодирования : VirtualDubMod 1.5.10.3 | www.virtualdub-fr.org || (build 2550/release)
Видео
Идентификатор : 0
Формат : MPEG-4 Visual
Профиль формата : Advanced Simple@L5
Параметр BVOP формата : 1
Параметр QPel формата : Нет
Параметр GMC формата : Без точки перехода
Параметр матрицы формата : Выборочная
Идентификатор кодека : XVID
Идентификатор кодека/Подсказка : XviD
Продолжительность : 1 ч. 59 м.
Битрейт : 2186 Кбит/сек
Ширина : 720 пикс.
Высота : 384 пикс.
Соотношение сторон : 1,875
Частота кадров : 23,976 кадр/сек
Цветовое пространство : YUV
Подвыборка цветности : 4:2:0
Битовая глубина : 8 бит
Тип развёртки : Прогрессивная
Метод сжатия : С потерями
Бит/(Пиксели*Кадры) : 0.330
Размер потока : 1,82 Гбайт (84%)
Библиотека кодирования : XviD 73
Аудио #1
Идентификатор : 1
Формат : AC-3
Формат/Информация : Audio Coding 3
Расширение режима : CM (complete main)
Идентификатор кодека : 2000
Продолжительность : 1 ч. 59 м.
Вид битрейта : Постоянный
Битрейт : 192 Кбит/сек
Канал(ы) : 2 канала(ов)
Расположение каналов : Front: L R
Частота : 48,0 КГц
Битовая глубина : 16 бит
Метод сжатия : С потерями
Размер потока : 164 Мбайт (7%)
Выравнивание : Разделение по промежуткам
Продолжительность промежутка : 42 мс. (1,00 видеокадр)
Время предзагрузки промежутка : 500 ms
Заголовок : Russian
Аудио #2
Идентификатор : 2
Формат : AC-3
Формат/Информация : Audio Coding 3
Расширение режима : CM (complete main)
Идентификатор кодека : 2000
Продолжительность : 1 ч. 59 м.
Вид битрейта : Постоянный
Битрейт : 192 Кбит/сек
Канал(ы) : 2 канала(ов)
Расположение каналов : Front: L R
Частота : 48,0 КГц
Битовая глубина : 16 бит
Метод сжатия : С потерями
Размер потока : 164 Мбайт (7%)
Выравнивание : Разделение по промежуткам
Продолжительность промежутка : 42 мс. (1,00 видеокадр)
Время предзагрузки промежутка : 500 ms
Заголовок : Japanese
[/spoiler][/spoiler][spoiler="Рыбка Поньо на утесе / Ponyo on the Cliff by the Sea / Gake no Ue no Ponyo (2008)"]
[img]http://i5.imageban.ru/out/2014/10/10/91a5f013c8a4c632ba844e86e9b55447.png[/img]
Информация о фильме
[b]Название: [/b] [color=darkred]Рыбка Поньо на утесе[/color]
[b]Оригинальное название: [/b][color=darkblue]Ponyo on the Cliff by the Sea / Gake no Ue no Ponyo / 崖の上のポニョ[/color]
[b]Страна: [/b] Япония
[b]Год выхода: [/b] 2008
[b]Жанр: [/b] сказка, приключения, повседневность
[b]Режиссер: [/b] [color=darkblue]Миядзаки Хаяо / Miyazaki Hayao / 宮崎駿 [/color]
[b]О фильме: [/b] [color=darkgreen]Маленькая любопытная рыбка Поньо — дочь колдуна и прекрасной морской богини уплывает из дома, чтобы понаблюдать за жизнью людей. Поньо застревает в банке и оказывается выброшенной на берег. Ее подбирает пятилетний Сооскэ. Малыши привязываются друг к другу. И теперь у Поньо только одно желание — стать человеком!.[/color]
[b]Студия: [/b] [img]http://i4.imageban.ru/out/2014/10/10/81efc098c93ed22e944eb3b1cbd4cfa2.jpg[/img]
[b]Продолжительность: [/b] полнометражный фильм, 01:40:49
[b]Перевод: [/b] [color=darkblue]Профессиональный (полное дублирование)[/color] | [color=#666633][b]R·U·S·C·I·C·O[/b][/color]
[b]Субтитры: [/b] русские (софтсаб, *srt) - полные: RUSCICO
[b]Хардсаб: [/b] отсутствует
Файл
[b]Качество: [/b] HDRip [color=gray][by rs.bandito][/color]
[b]Формат: [/b] AVI
[b]Видео: [/b] 720 x 384 (1.88:1), 23.976 fps, XviD build 73 ~2143 kbps avg, 0.323 bit/pixel
[b]Аудио #1:[/b] [color=darkblue]RUS -[/color] 48 kHz, AC3 Dolby Digital, 3/2 (L,C,R,l,r) + LFE ch, ~448 kbps [color=darkblue]| R·U·S·C·I·C·O |[/color]
[b]Аудио #2:[/b] [color=darkblue]JAP -[/color] 48 kHz, AC3 Dolby Digital, 3/2 (L,C,R,l,r) + LFE ch, ~448 kbps [color=darkblue]| Оригинал |[/color]
[b]Автор рипа: [/b] [color=darkblue]BAXTOR5[/color]
[url=http://firepic.org/?v=5.2014-10-12_h78uo9kuwtbe.png][img]http://5.firepic.org/5/thumbs/2014-10/12/h78uo9kuwtbe.png[/img][/url] [url=http://firepic.org/?v=5.2014-10-12_j5zmrt6lfaqw.png][img]http://5.firepic.org/5/thumbs/2014-10/12/j5zmrt6lfaqw.png[/img][/url] [url=http://firepic.org/?v=5.2014-10-12_uzclmq8un5f2.png][img]http://5.firepic.org/5/thumbs/2014-10/12/uzclmq8un5f2.png[/img][/url] [url=http://firepic.org/?v=5.2014-10-12_3qmo0ntjiv13.png][img]http://5.firepic.org/5/thumbs/2014-10/12/3qmo0ntjiv13.png[/img][/url] [url=http://firepic.org/?v=5.2014-10-12_qb8qrubgwmtd.png][img]http://5.firepic.org/5/thumbs/2014-10/12/qb8qrubgwmtd.png[/img][/url]
[url=http://firepic.org/?v=5.2014-10-12_jeqdji71vl10.png][img]http://5.firepic.org/5/thumbs/2014-10/12/jeqdji71vl10.png[/img][/url] [url=http://firepic.org/?v=5.2014-10-12_50hdu86b03rq.png][img]http://5.firepic.org/5/thumbs/2014-10/12/50hdu86b03rq.png[/img][/url] [url=http://firepic.org/?v=5.2014-10-12_mtx06gceksiu.png][img]http://5.firepic.org/5/thumbs/2014-10/12/mtx06gceksiu.png[/img][/url] [url=http://firepic.org/?v=5.2014-10-12_2ekmpalkatou.png][img]http://5.firepic.org/5/thumbs/2014-10/12/2ekmpalkatou.png[/img][/url] [url=http://firepic.org/?v=5.2014-10-12_rjwqcd8pwuos.png][img]http://5.firepic.org/5/thumbs/2014-10/12/rjwqcd8pwuos.png[/img][/url]
[spoiler="MediaInfo"]Общее
Полное имя : Ponyo on the Cliff by the SeaPonyo_on_the_Cliff_by_the_Sea_HDRip_DUB.avi
Формат : AVI
Формат/Информация : Audio Video Interleave
Профиль формата : OpenDML
Размер файла : 2,15 Гбайт
Продолжительность : 1 ч. 40 м.
Общий поток : 3057 Кбит/сек
Название фильма : Ponyo on the Cliff by the Sea
Программа кодирования : VirtualDubMod 1.5.10.3 | www.virtualdub-fr.org || (build 2550/release)
Видео
Идентификатор : 0
Формат : MPEG-4 Visual
Профиль формата : Advanced Simple@L5
Параметр BVOP формата : 1
Параметр QPel формата : Нет
Параметр GMC формата : Без точки перехода
Параметр матрицы формата : Выборочная
Идентификатор кодека : XVID
Идентификатор кодека/Подсказка : XviD
Продолжительность : 1 ч. 40 м.
Битрейт : 2143 Кбит/сек
Ширина : 720 пикс.
Высота : 384 пикс.
Соотношение сторон : 1,875
Частота кадров : 23,976 кадр/сек
Цветовое пространство : YUV
Подвыборка цветности : 4:2:0
Битовая глубина : 8 бит
Тип развёртки : Прогрессивная
Метод сжатия : С потерями
Бит/(Пиксели*Кадры) : 0.323
Размер потока : 1,51 Гбайт (70%)
Библиотека кодирования : XviD 73
Аудио #1
Идентификатор : 1
Формат : AC-3
Формат/Информация : Audio Coding 3
Расширение режима : CM (complete main)
Идентификатор кодека : 2000
Продолжительность : 1 ч. 40 м.
Вид битрейта : Постоянный
Битрейт : 448 Кбит/сек
Канал(ы) : 6 канала(ов)
Расположение каналов : Front: L C R, Side: L R, LFE
Частота : 48,0 КГц
Битовая глубина : 16 бит
Метод сжатия : С потерями
Размер потока : 323 Мбайт (15%)
Выравнивание : Разделение по промежуткам
Продолжительность промежутка : 42 мс. (1,00 видеокадр)
Время предзагрузки промежутка : 500 ms
Заголовок : Russian
Аудио #2
Идентификатор : 2
Формат : AC-3
Формат/Информация : Audio Coding 3
Расширение режима : CM (complete main)
Идентификатор кодека : 2000
Продолжительность : 1 ч. 40 м.
Вид битрейта : Постоянный
Битрейт : 448 Кбит/сек
Канал(ы) : 6 канала(ов)
Расположение каналов : Front: L C R, Side: L R, LFE
Частота : 48,0 КГц
Битовая глубина : 16 бит
Метод сжатия : С потерями
Размер потока : 323 Мбайт (15%)
Выравнивание : Разделение по промежуткам
Продолжительность промежутка : 42 мс. (1,00 видеокадр)
Время предзагрузки промежутка : 500 ms
Заголовок : Japanese
[/spoiler][/spoiler][spoiler="Ветер крепчает / The Wind Rises / Kaze Tachinu (2013)"]
[img]http://i1.imageban.ru/out/2014/10/10/30a3e5836874e5c928590934a6ff1c07.png[/img]
Информация о фильме
[b]Название: [/b] [color=darkred]Ветер крепчает[/color]
[b]Оригинальное название: [/b][color=darkblue]The Wind Rises / Kaze Tachinu / 風立ちぬ[/color]
[b]Страна: [/b] Япония
[b]Год выхода: [/b] 2013
[b]Жанр: [/b] драма, история, биография
[b]Режиссер: [/b] [color=darkblue]Миядзаки Хаяо / Miyazaki Hayao / 宮崎駿 [/color]
[b]О фильме: [/b] [color=darkgreen]Мальчик Дзиро мечтает о полетах и красивых самолетах, способных обогнать ветер. Вот только пилотом ему не стать — он с рождения близорук. Но Дзиро не расстается с мечтой о небе, он начинает придумывать идеальный самолет и со временем становится одним из лучших авиаконструкторов мира. На пути к успеху он не только встретит много интересных людей, переживет Великое землетрясение в Токио и жестокие войны, но и обретет любовь своей жизни — прекрасную Наоко.[/color]
[b]Студия: [/b] [img]http://i4.imageban.ru/out/2014/10/10/81efc098c93ed22e944eb3b1cbd4cfa2.jpg[/img]
[b]Продолжительность: [/b] полнометражный фильм, 02:06:31
[b]Перевод: [/b] [color=darkblue]Профессиональный (полное дублирование)[/color] | [color=#666633][b]Reanimedia[/b][/color]
[b]Субтитры: [/b] русские (софтсаб, *srt) - полные: Reanimedia
[b]Хардсаб: [/b] отсутствует
Файл
[b]Качество: [/b] HDRip [color=gray][by rs.bandito][/color]
[b]Формат: [/b] AVI
[b]Видео: [/b] 720 x 384 (1.88:1), 23.976 fps, XviD build 73 ~2050 kbps avg, 0.309 bit/pixel
[b]Аудио #1:[/b] [color=darkblue]RUS -[/color] AC3 Dolby Digital, 1/0 (C) ch, ~192 kbps [color=darkblue]| Reanimedia |[/color]
[b]Аудио #2:[/b] [color=darkblue]JAP -[/color] AC3 Dolby Digital, 1/0 (C) ch, ~192 kbps [color=darkblue]| Оригинал |[/color]
[b]Автор рипа: [/b] [color=darkblue]Miheleniya[/color]
[url=http://firepic.org/?v=5.2014-10-12_da6jykj36djb.png][img]http://5.firepic.org/5/thumbs/2014-10/12/da6jykj36djb.png[/img][/url] [url=http://firepic.org/?v=5.2014-10-12_h1i2a4s8o7sn.png][img]http://5.firepic.org/5/thumbs/2014-10/12/h1i2a4s8o7sn.png[/img][/url] [url=http://firepic.org/?v=5.2014-10-12_viqv0yzau9y6.png][img]http://5.firepic.org/5/thumbs/2014-10/12/viqv0yzau9y6.png[/img][/url] [url=http://firepic.org/?v=5.2014-10-12_i9xeb7fixnax.png][img]http://5.firepic.org/5/thumbs/2014-10/12/i9xeb7fixnax.png[/img][/url] [url=http://firepic.org/?v=5.2014-10-12_htuvpc0bkqxk.png][img]http://5.firepic.org/5/thumbs/2014-10/12/htuvpc0bkqxk.png[/img][/url]
[url=http://firepic.org/?v=5.2014-10-12_fmkzk0us8iw9.png][img]http://5.firepic.org/5/thumbs/2014-10/12/fmkzk0us8iw9.png[/img][/url] [url=http://firepic.org/?v=5.2014-10-12_e3h2gipn20hb.png][img]http://5.firepic.org/5/thumbs/2014-10/12/e3h2gipn20hb.png[/img][/url] [url=http://firepic.org/?v=5.2014-10-12_9jmp7wui8jt7.png][img]http://5.firepic.org/5/thumbs/2014-10/12/9jmp7wui8jt7.png[/img][/url] [url=http://firepic.org/?v=5.2014-10-12_5c5cy4hra0xj.png][img]http://5.firepic.org/5/thumbs/2014-10/12/5c5cy4hra0xj.png[/img][/url] [url=http://firepic.org/?v=5.2014-10-12_oan0ip9r3nop.png][img]http://5.firepic.org/5/thumbs/2014-10/12/oan0ip9r3nop.png[/img][/url]
[spoiler="MediaInfo"]Общее
Полное имя : The Wind RisesThe_Wind_Rises_HDRip_DUB.avi
Формат : AVI
Формат/Информация : Audio Video Interleave
Профиль формата : OpenDML
Размер файла : 2,17 Гбайт
Продолжительность : 2 ч. 6 м.
Общий поток : 2452 Кбит/сек
Название фильма : The Wind Rises
Программа кодирования : VirtualDubMod 1.5.10.2 (build 2540/release)
Библиотека кодирования : VirtualDubMod build 2540/release
Видео
Идентификатор : 0
Формат : MPEG-4 Visual
Профиль формата : Advanced Simple@L5
Параметр BVOP формата : 1
Параметр QPel формата : Нет
Параметр GMC формата : Без точки перехода
Параметр матрицы формата : Выборочная
Идентификатор кодека : XVID
Идентификатор кодека/Подсказка : XviD
Продолжительность : 2 ч. 6 м.
Битрейт : 2050 Кбит/сек
Ширина : 720 пикс.
Высота : 384 пикс.
Соотношение сторон : 1,875
Частота кадров : 23,976 кадр/сек
Цветовое пространство : YUV
Подвыборка цветности : 4:2:0
Битовая глубина : 8 бит
Тип развёртки : Прогрессивная
Метод сжатия : С потерями
Бит/(Пиксели*Кадры) : 0.309
Размер потока : 1,81 Гбайт (84%)
Библиотека кодирования : XviD 73
Аудио #1
Идентификатор : 1
Формат : AC-3
Формат/Информация : Audio Coding 3
Расширение режима : CM (complete main)
Идентификатор кодека : 2000
Продолжительность : 2 ч. 6 м.
Вид битрейта : Постоянный
Битрейт : 192 Кбит/сек
Канал(ы) : 1 канал
Расположение каналов : Front: C
Частота : 48,0 КГц
Битовая глубина : 16 бит
Метод сжатия : С потерями
Размер потока : 174 Мбайт (8%)
Выравнивание : Разделение по промежуткам
Продолжительность промежутка : 42 мс. (1,00 видеокадр)
Время предзагрузки промежутка : 500 ms
Заголовок : Russian
Аудио #2
Идентификатор : 2
Формат : AC-3
Формат/Информация : Audio Coding 3
Расширение режима : CM (complete main)
Идентификатор кодека : 2000
Продолжительность : 2 ч. 6 м.
Вид битрейта : Постоянный
Битрейт : 192 Кбит/сек
Канал(ы) : 1 канал
Расположение каналов : Front: C
Частота : 48,0 КГц
Битовая глубина : 16 бит
Метод сжатия : С потерями
Размер потока : 174 Мбайт (8%)
Выравнивание : Разделение по промежуткам
Продолжительность промежутка : 42 мс. (1,00 видеокадр)
Время предзагрузки промежутка : 500 ms
Заголовок : Japanese
[/spoiler][/spoiler]



   Похожие торренты   Торрент   Размер 
В этой теме нет новых непрочитанных сообщений. Коллекция произведений Миядзаки Хаяо, часть 2 / Collection of Miyazaki Hayao, part 2 (1972-2011) HDRip/BDRip от rs.bandito

62 | 48

14.44 ГБ

В этой теме нет новых непрочитанных сообщений. Исскуство Хаяо Миядзаки: как создавался мультфильм "Унесенные призраками" (2001) DVDRip | L2 | Документальный фильм

35 | 3

368.98 МБ

В этой теме нет новых непрочитанных сообщений. Ходячий замок / Howl's Moving Castle / Hauru no ugoku shiro (Хаяо Миядзаки) [Movie] [RUS(int)+JAP] [2004, аниме, мультфильм, фантастика, фэнтези, мелодрама, приключения, BDRip] [1080p]

6 | 4

10.88 ГБ

В этой теме нет новых непрочитанных сообщений. Коллекция: Чужой, Хищник / Collection: Alien, Predator (1979-2010) BDRip-AVC [Hi10P] от FREEISLAND

83 | 11

22.27 ГБ

В этой теме нет новых непрочитанных сообщений. Глен Кук - 52 книги. Собрание произведений [1979-2013] (1993-2015) FB2

604 | 52

62.38 МБ

В этой теме нет новых непрочитанных сообщений. Федерико Феллини - Коллекция Ruscico / Federico Fellini - Ruscico Collection (1979-1983-1985) 3x DVD9

9 | 2

19.53 ГБ

В этой теме нет новых непрочитанных сообщений. Гуляковский Евгений - 49 книг. Собрание произведений [1962-2004] (1979-2015) FB2

610 | 26

45.61 МБ




Вы не можете начинать темы
Вы не можете отвечать на сообщения
Вы не можете редактировать свои сообщения
Вы не можете удалять свои сообщения
Вы не можете добавлять вложения

Перейти:  
Для Мосгорсуда, Роскомнадзора и рекламодателей: mosgorsud-torrent[собачка]yandex.ru
 Вход
ppkBB3cker v.2 © 2008-2014 @ PPK
[ Time : 0.048s | 15 Queries | GZIP : Off ]

cron