img image001 image001 image001 image001 image001 image001 image001 image001 image001 image001 image001 image001 image001 image001 image001

Planets Sun Sun Sun
Статистика раздачи
Автор: Nickolas3434 | Размер: 3.3 ГБ | Добавлен: 16 окт 2014
Раздают: 96    Качают: 4
Скачать торрент
Скачать торрент
Описание торрента

СообщениеДобавлено: 16 окт 2014 


#77
Информация о фильме
    Русское название: Сад изящных слов / Сад слов
    Оригинальное название: The Garden of Words / Kotonoha no Niwa
    Год выхода: 2013
    Жанр: аниме, мультфильм, мелодрама
    Режиссер: Макото Синкай
    Выпущено: Япония
    Продолжительность: 00:46:03
    Перевод: Любительский (двухголосый закадровый)
    В ролях: Ирино Мию, Кана Ханадзава, Фуми Хирано, Гоу Маэда, Юка Тэрасаки, Сугуру Иноэ


Сюжет фильма
    Юноша по имени Такао встречает таинственную молодую женщину. Их случайные и как будто ни к чему не ведущие встречи в парке, где Такао прогуливает занятия, работая над достижением своей странной мечты — посвятить жизнь конструированию и изготовлению обуви — повторяются снова и снова… правда, только в ненастные дни. Сердца героев начинают приоткрываться друг другу, но на это нужно время, а впереди уже маячит конец сезона дождей…


Файл
    Качество: BDRip 1080p (исходник Blu-ray Disc Remux)
    Видео: 1920x1080, 8968 Кбит/сек, 23,976 кадр/сек, AVC, x264, High@L4.1, 16:9, 0.180 Бит/[Пиксели*Кадры]
    Аудио 1: AC-3, 640 Кбит/сек, 6 канала(ов), 48,0 КГц - Двухголосый закадровый, Zendos & Eladiel / Русский
    Аудио 2: AC-3, 640 Кбит/сек, 6 канала(ов), 48,0 КГц - Оригинал / Японский
    Субтитры: Русские | Полные
    Форсированные субтитры: Есть
    Чаптеры (Главы): Есть



Сэмпл
Автор Рипа: Сообщество:



Format : Matroska
Format version : Version 2
File size : 3.30 GiB
Duration : 46mn 3s
Overall bit rate : 10.3 Mbps
Movie name : Сад слов.(2013).BDRip.1080p.[envy]
Encoded date : UTC 2014-10-13 13:05:37
Writing application : mkvmerge v5.8.0 ('No Sleep / Pillow') built on Sep 2 2012 15:37:04
Writing library : libebml v1.2.3 + libmatroska v1.3.0
Video
ID : 1
Format : AVC
Format/Info : Advanced Video Codec
Format profile : High@L4.1
Format settings, CABAC : Yes
Format settings, ReFrames : 4 frames
Codec ID : V_MPEG4/ISO/AVC
Duration : 46mn 3s
Bit rate : 8 968 Kbps
Width : 1 920 pixels
Height : 1 080 pixels
Display aspect ratio : 16:9
Frame rate mode : Constant
Frame rate : 23.976 fps
Color space : YUV
Chroma subsampling : 4:2:0
Bit depth : 8 bits
Scan type : Progressive
Bits/(Pixel*Frame) : 0.180
Stream size : 2.82 GiB (86%)
Title : Сад слов.(2013).BDRip.1080p.[envy]
Writing library : x264 core 142 r2479 dd79a61
Encoding settings : cabac=1 / ref=4 / deblock=1:0:0 / analyse=0x3:0x113 / me=umh / subme=11 / psy=1 / psy_rd=1.00:0.00 / mixed_ref=1 / me_range=48 / chroma_me=1 / trellis=2 / 8x8dct=1 / cqm=0 / deadzone=21,11 / fast_pskip=0 / chroma_qp_offset=-2 / threads=12 / lookahead_threads=1 / sliced_threads=0 / nr=0 / decimate=1 / interlaced=0 / bluray_compat=0 / constrained_intra=0 / bframes=6 / b_pyramid=2 / b_adapt=2 / b_bias=0 / direct=3 / weightb=1 / open_gop=0 / weightp=2 / keyint=240 / keyint_min=23 / scenecut=0 / intra_refresh=0 / rc=2pass / mbtree=0 / bitrate=8968 / ratetol=2.0 / qcomp=0.60 / qpmin=0 / qpmax=69 / qpstep=4 / cplxblur=20.0 / qblur=0.5 / ip_ratio=1.40 / pb_ratio=1.30 / aq=2:1.00
Language : English
Default : Yes
Forced : No
Audio #1
ID : 2
Format : AC-3
Format/Info : Audio Coding 3
Mode extension : CM (complete main)
Format settings, Endianness : Big
Codec ID : A_AC3
Duration : 46mn 3s
Bit rate mode : Constant
Bit rate : 640 Kbps
Channel(s) : 6 channels
Channel positions : Front: L C R, Side: L R, LFE
Sampling rate : 48.0 KHz
Bit depth : 16 bits
Compression mode : Lossy
Stream size : 211 MiB (6%)
Title : DVO Zendos & Eladiel
Language : Russian
Default : Yes
Forced : No
Audio #2
ID : 3
Format : AC-3
Format/Info : Audio Coding 3
Mode extension : CM (complete main)
Format settings, Endianness : Big
Codec ID : A_AC3
Duration : 46mn 3s
Bit rate mode : Constant
Bit rate : 640 Kbps
Channel(s) : 6 channels
Channel positions : Front: L C R, Side: L R, LFE
Sampling rate : 48.0 KHz
Bit depth : 16 bits
Compression mode : Lossy
Stream size : 211 MiB (6%)
Title : Jpn
Language : Japanese
Default : No
Forced : No
Text #1
ID : 4
Format : UTF-8
Codec ID : S_TEXT/UTF8
Codec ID/Info : UTF-8 Plain Text
Title : forced
Language : Russian
Default : Yes
Forced : Yes
Text #2
ID : 5
Format : UTF-8
Codec ID : S_TEXT/UTF8
Codec ID/Info : UTF-8 Plain Text
Title : full
Language : Russian
Default : No
Forced : No
Menu
00:00:00.000 : ru:Глава 1
00:05:13.688 : ru:Глава 2
00:07:42.253 : ru:Глава 3
00:13:08.204 : ru:Глава 4
00:18:27.648 : ru:Глава 5
00:21:06.098 : ru:Глава 6
00:25:17.766 : ru:Глава 7
00:29:19.758 : ru:Глава 8
00:37:04.889 : ru:Глава 9
00:45:01.740 : ru:Глава 10


#77



   Похожие торренты   Торрент   Размер 
В этой теме нет новых непрочитанных сообщений. Сад изящных слов / Сад слов / The Garden of Words / Kotonoha no Niwa (2013) BDRip 720p | L1

93 | 11

1.07 ГБ

В этой теме нет новых непрочитанных сообщений. Сад изящных слов / Сад слов / Kotonoha no Niwa / The Garden of Words (2013) BDRip-720p | D

155 | 44

2.01 ГБ

В этой теме нет новых непрочитанных сообщений. Сад изящных слов / Сад слов / The Garden of Words / Kotonoha no Niwa (2013) BDRemux | D

66 | 3

11.47 ГБ

В этой теме нет новых непрочитанных сообщений. Сад изящных слов / Сад слов / The Garden of Words / Kotonoha no Niwa (2013) BDRemux | L2

46 | 11

15.48 ГБ

В этой теме нет новых непрочитанных сообщений. Сад изящных слов / The Garden of Words / Kotonoha no Niwa (2013) BDRip-AVC | L2

155 | 5

1.02 ГБ

В этой теме нет новых непрочитанных сообщений. Сад изящных слов / The Garden of Words / Kotonoha no Niwa (2013) BDRip 720p | L1

46 | 8

1.07 ГБ

В этой теме нет новых непрочитанных сообщений. Сад изящных слов / The Garden of Words / Kotonoha no Niwa (2013) BDRip от HQ-ViDEO | D

75 | 22

745.15 МБ




Вы не можете начинать темы
Вы не можете отвечать на сообщения
Вы не можете редактировать свои сообщения
Вы не можете удалять свои сообщения
Вы не можете добавлять вложения

Перейти:  
Для Мосгорсуда, Роскомнадзора и рекламодателей: mosgorsud-torrent[собачка]yandex.ru
 Вход
ppkBB3cker v.2 © 2008-2014 @ PPK
[ Time : 1.044s | 17 Queries | GZIP : Off ]
CGP output time : 0.027s | 5 Queries | GZIP : Off

Торрент трекер RUTOR.IN, Не можете зайти на rutor.org? Какой новый адрес рутор? Какое зеркало рутор? Не работает rutor.org и зеркала? Тогда наш торрент специально для вас. Rutor.in неофициальное зеркало rutor. В случае если у Вас заблокирован rutor или вдруг Вы не можете на него зайти, то Вы без труда сможете скачать бесплатно и без рекламы последние новинки кино, игр, сериалов и прочего у нас, на Rutor.in. Не нужно использовать прокси, чтобы зайти на рутор, достаточно воспользоваться нашим ресурсом. Все новые фильмы, игры, сериалы, книги и музыка за 2013 и 2014 годы через торрент бесплатно. Скачивайте фильмы в хорошем качестве, игры для пк, xbox, playstation без регистрации. У нас вы найдете новые Зарубежные сериалы и Русские сериалы 2013, 2014, 2015 годов. Оставайтесь с нами, качайте любимые фильмы, игры, сериалы, книги и музыку.