img image001 image001 image001 image001 image001 image001 image001 image001 image001 image001 image001 image001 image001 image001 image001

Planets Sun Sun Sun
Статистика раздачи
Автор: Nickolas3434 | Размер: 5.77 ГБ | Добавлен: 16 окт 2014
Раздают: 119    Качают: 18
Скачать торрент
Скачать торрент
Описание торрента

СообщениеДобавлено: 16 окт 2014 


#77
Информация о фильме
    Русское название: За облаками
    Оригинальное название: The Place Promised in Our Early Days (Beyond the Clouds) / Kumo no muko, yakusoku no basho
    Год выхода: 2004
    Жанр: аниме, мультфильм, фантастика, драма
    Режиссер: Макото Синкай
    Выпущено: Япония
    Продолжительность: 01:30:20
    Перевод: Дублированный
    В ролях: Хидэтака Ёсиока, Масато Хагивара, Юка Нанри, Уншо Ишизука, Казухико Иноэ, Риса Мидзуно, Хидэнобу, Киути, Масами Ивасаки, Эйдзи Такэмото, Такахиро Хирано


Сюжет фильма
    Согласно альтернативному варианту развития истории, после поражения во второй мировой войне Япония оказалась разделённой между союзниками — северный остров Хоккайдо аннексировал Советский Союз, а Хонсю и другими южными островами овладели американцы.
    Летом 1996 года Советы начали сооружать в своей зоне оккупации загадочное сооружение — башню столь исполинских размеров, что трое товарищей-старшеклассников с американского Хонсю, гуляющих вместе в пору школьных каникул, могли отчётливо видеть её контуры, возносящиеся в заоблочную высь. Друзья дали друг другу зарок, что однажды они построят аэроплан и раскроют секрет гигантской башни…


Файл
    Качество: BDRip 1080p (исходник Blu-ray Disc)
    Видео: 1916x1078, 8046 Кбит/сек, 23,976 кадр/сек, AVC, x264, High@L4.1, 16:9, 0.162 Бит/[Пиксели*Кадры]
    Аудио 1: AC-3, 448 Кбит/сек, 6 канала(ов), 48,0 КГц - Дублированный / Русский
    Аудио 2: AC-3, 640 Кбит/сек, 6 канала(ов), 48,0 КГц - Оригинал / Японский
    Субтитры: Русские | Полные
    Форсированные субтитры: Есть
    Чаптеры (Главы): Есть



Сэмпл
Автор Рипа: Сообщество:



Format : Matroska
Format version : Version 2
File size : 5.77 GiB
Duration : 1h 30mn
Overall bit rate : 9 139 Kbps
Movie name : За облаками.(2004).BDRip.1080p.[envy]
Encoded date : UTC 2014-10-14 11:52:12
Writing application : mkvmerge v5.8.0 ('No Sleep / Pillow') built on Sep 2 2012 15:37:04
Writing library : libebml v1.2.3 + libmatroska v1.3.0
Video
ID : 1
Format : AVC
Format/Info : Advanced Video Codec
Format profile : High@L4.1
Format settings, CABAC : Yes
Format settings, ReFrames : 4 frames
Codec ID : V_MPEG4/ISO/AVC
Duration : 1h 30mn
Bit rate : 8 046 Kbps
Width : 1 916 pixels
Height : 1 078 pixels
Display aspect ratio : 16:9
Original display aspect ratio : 16:9
Frame rate mode : Constant
Frame rate : 23.976 fps
Color space : YUV
Chroma subsampling : 4:2:0
Bit depth : 8 bits
Scan type : Progressive
Bits/(Pixel*Frame) : 0.162
Stream size : 4.97 GiB (86%)
Title : За облаками.(2004).BDRip.1080p.[envy]
Writing library : x264 core 142 r2479 dd79a61
Encoding settings : cabac=1 / ref=4 / deblock=1:0:0 / analyse=0x3:0x113 / me=umh / subme=11 / psy=1 / psy_rd=1.00:0.00 / mixed_ref=1 / me_range=48 / chroma_me=1 / trellis=2 / 8x8dct=1 / cqm=0 / deadzone=21,11 / fast_pskip=0 / chroma_qp_offset=-2 / threads=12 / lookahead_threads=2 / sliced_threads=0 / nr=0 / decimate=1 / interlaced=0 / bluray_compat=0 / constrained_intra=0 / bframes=7 / b_pyramid=2 / b_adapt=2 / b_bias=0 / direct=3 / weightb=1 / open_gop=0 / weightp=2 / keyint=240 / keyint_min=23 / scenecut=40 / intra_refresh=0 / rc=2pass / mbtree=0 / bitrate=8046 / ratetol=2.0 / qcomp=0.60 / qpmin=0 / qpmax=69 / qpstep=4 / cplxblur=20.0 / qblur=0.5 / ip_ratio=1.40 / pb_ratio=1.30 / aq=2:1.00
Language : English
Default : Yes
Forced : No
Audio #1
ID : 2
Format : AC-3
Format/Info : Audio Coding 3
Mode extension : CM (complete main)
Format settings, Endianness : Big
Codec ID : A_AC3
Duration : 1h 30mn
Bit rate mode : Constant
Bit rate : 448 Kbps
Channel(s) : 6 channels
Channel positions : Front: L C R, Side: L R, LFE
Sampling rate : 48.0 KHz
Bit depth : 16 bits
Compression mode : Lossy
Stream size : 289 MiB (5%)
Title : Dub
Language : Russian
Default : Yes
Forced : No
Audio #2
ID : 3
Format : AC-3
Format/Info : Audio Coding 3
Mode extension : CM (complete main)
Format settings, Endianness : Big
Codec ID : A_AC3
Duration : 1h 30mn
Bit rate mode : Constant
Bit rate : 640 Kbps
Channel(s) : 6 channels
Channel positions : Front: L C R, Side: L R, LFE
Sampling rate : 48.0 KHz
Bit depth : 16 bits
Compression mode : Lossy
Stream size : 414 MiB (7%)
Title : Jpn
Language : Japanese
Default : No
Forced : No
Text #1
ID : 4
Format : UTF-8
Codec ID : S_TEXT/UTF8
Codec ID/Info : UTF-8 Plain Text
Title : forced
Language : Russian
Default : Yes
Forced : Yes
Text #2
ID : 5
Format : UTF-8
Codec ID : S_TEXT/UTF8
Codec ID/Info : UTF-8 Plain Text
Title : full
Language : Russian
Default : No
Forced : No
Menu
00:00:00.000 : :Chapter 01
00:01:42.936 : :Chapter 02
00:10:58.282 : :Chapter 03
00:14:03.843 : :Chapter 04
00:18:44.748 : :Chapter 05
00:21:42.926 : :Chapter 06
00:26:56.239 : :Chapter 07
00:32:44.796 : :Chapter 08
00:36:06.998 : :Chapter 09
00:42:15.533 : :Chapter 10
00:48:07.092 : :Chapter 11
00:50:28.025 : :Chapter 12
00:57:43.668 : :Chapter 13
01:02:50.975 : :Chapter 14
01:07:35.051 : :Chapter 15
01:14:44.688 : :Chapter 16
01:19:30.223 : :Chapter 17
01:25:24.953 : :Chapter 18
01:30:18.412 : :Chapter 19


#77



   Похожие торренты   Торрент   Размер 
В этой теме нет новых непрочитанных сообщений. За облаками / Kumo no mukô, yakusoku no basho / The Place Promised in Our Early Days (Beyond the Clouds) (2004) BDRip от HELLYWOOD

16 | 6

1.74 ГБ

В этой теме нет новых непрочитанных сообщений. За облаками / The Place Promised in Our Early Days (Beyond the Clouds) / Kumo no muko, yakusoku no basho (2004) (2004) BDRip-AVC от HQCLUB | D

21 | 3

1.1 ГБ

В этой теме нет новых непрочитанных сообщений. За облаками / The Place Promised in Our Early Days / Kumo no mukô, yakusoku no basho (2004) BDRip 1080p от FREEISLAND

19 | 2

4.37 ГБ

В этой теме нет новых непрочитанных сообщений. Смех под облаками / Donten ni Warau / Laughing Under the Clouds [12 из 12] (2014) HDTVRip 720p | L1

16 | 10

4.1 ГБ

В этой теме нет новых непрочитанных сообщений. Смех под облаками / Donten ni Warau / Laughing Under the Clouds [12 из 12] (2014) HDTVRip 720p | L1

105 | 17

4.11 ГБ

В этой теме нет новых непрочитанных сообщений. Голова в облаках / Head in the Clouds (2004) BDRip 1080p | D

1 | 1

12.5 ГБ

В этой теме нет новых непрочитанных сообщений. Странные дни / Strange Days (1995) BDRip 1080p от NNNB | P, A

34 | 8

14.95 ГБ




Вы не можете начинать темы
Вы не можете отвечать на сообщения
Вы не можете редактировать свои сообщения
Вы не можете удалять свои сообщения
Вы не можете добавлять вложения

Перейти:  
Для Мосгорсуда, Роскомнадзора и рекламодателей: mosgorsud-torrent[собачка]yandex.ru
 Вход
ppkBB3cker v.2 © 2008-2014 @ PPK
[ Time : 0.082s | 15 Queries | GZIP : Off ]

Торрент трекер RUTOR.IN, Не можете зайти на rutor.org? Какой новый адрес рутор? Какое зеркало рутор? Не работает rutor.org и зеркала? Тогда наш торрент специально для вас. Rutor.in неофициальное зеркало rutor. В случае если у Вас заблокирован rutor или вдруг Вы не можете на него зайти, то Вы без труда сможете скачать бесплатно и без рекламы последние новинки кино, игр, сериалов и прочего у нас, на Rutor.in. Не нужно использовать прокси, чтобы зайти на рутор, достаточно воспользоваться нашим ресурсом. Все новые фильмы, игры, сериалы, книги и музыка за 2013 и 2014 годы через торрент бесплатно. Скачивайте фильмы в хорошем качестве, игры для пк, xbox, playstation без регистрации. У нас вы найдете новые Зарубежные сериалы и Русские сериалы 2013, 2014, 2015 годов. Оставайтесь с нами, качайте любимые фильмы, игры, сериалы, книги и музыку.