img image001 image001 image001 image001 image001 image001 image001 image001 image001 image001 image001 image001 image001 image001 image001

Planets Sun Sun Sun
Статистика раздачи
Автор: Nickolas3434 | Размер: 5.77 ГБ | Добавлен: 22 окт 2014
Раздают: 63    Качают: 26
Скачать торрент
Скачать торрент
Описание торрента

СообщениеДобавлено: 22 окт 2014 


#77
Информация о фильме
    Русское название: Железобетон
    Оригинальное название: Tekkon Kinkreet
    Год выхода: 2006
    Жанр: аниме, мультфильм, фантастика, боевик, криминал, приключения
    Режиссер: Майкл Ариас
    Выпущено: Япония
    Продолжительность: 01:50:36
    Перевод: Профессиональный (Многоголосый закадровый)
    В ролях: Казунари Ниномия, Аои Ю, Юсукэ Исейа, Канкуро Кудо Мин Танака, Рокуро Ная, Томоми Нисимура, Мугихито, Нао Омори, Ёсинори Окада


Сюжет фильма
    Футуристический мир Города Богатств, в котором проживают двое мальчиков сирот, построен на величайшем контрасте; иногда жизнь здесь проявляет свои дары, порой она может обойтись крайне жестоко. Их называют «Black & White».
    На восходе и закате они охраняют свой город. Днем и ночью герои вынуждены скитаться по улицам, в поисках способа заработать денег. Но краски сгущаются, когда они оказываются связанными миссией: сразится и отвоевать у злоумышленников, мечтающих завладеть властью в метрополисе, то, что считается душой Города и спасти самих себя.


Файл
    Качество: BDRip 1080p (исходник Blu-ray Disc)
    Видео: 1920x816, 6370 Кбит/сек, 23,976 кадр/сек, AVC, x264, High@L4.1, 2.35:1, 0.170 Бит/[Пиксели*Кадры]
    Аудио 1: AC-3, 448 Кбит/сек, 6 канала(ов), 48,0 КГц - Многоголосый закадровый / Русский
    Аудио 2: AC-3, 640 Кбит/сек, 6 канала(ов), 48,0 КГц - Оригинал / Японский
    Субтитры: Русские | Полные
    Форсированные субтитры: Нет
    Чаптеры (Главы): Нет



Сэмпл
Автор Рипа: Сообщество:



Format : Matroska
Format version : Version 2
File size : 5.77 GiB
Duration : 1h 50mn
Overall bit rate : 7 463 Kbps
Movie name : Железобетон.(2006).BDRip.1080p.[envy]
Encoded date : UTC 2014-10-20 19:03:50
Writing application : mkvmerge v5.8.0 ('No Sleep / Pillow') built on Sep 2 2012 15:37:04
Writing library : libebml v1.2.3 + libmatroska v1.3.0
Video
ID : 1
Format : AVC
Format/Info : Advanced Video Codec
Format profile : High@L4.1
Format settings, CABAC : Yes
Format settings, ReFrames : 5 frames
Codec ID : V_MPEG4/ISO/AVC
Duration : 1h 50mn
Bit rate : 6 370 Kbps
Width : 1 920 pixels
Height : 816 pixels
Display aspect ratio : 2.35:1
Frame rate mode : Constant
Frame rate : 23.976 fps
Color space : YUV
Chroma subsampling : 4:2:0
Bit depth : 8 bits
Scan type : Progressive
Bits/(Pixel*Frame) : 0.170
Stream size : 4.81 GiB (83%)
Title : Железобетон.(2006).BDRip.1080p.[envy]
Writing library : x264 core 142 r2479 dd79a61
Encoding settings : cabac=1 / ref=5 / deblock=1:0:0 / analyse=0x3:0x113 / me=umh / subme=11 / psy=1 / psy_rd=1.00:0.00 / mixed_ref=1 / me_range=48 / chroma_me=1 / trellis=2 / 8x8dct=1 / cqm=0 / deadzone=21,11 / fast_pskip=0 / chroma_qp_offset=-2 / threads=12 / lookahead_threads=2 / sliced_threads=0 / nr=0 / decimate=1 / interlaced=0 / bluray_compat=0 / constrained_intra=0 / bframes=7 / b_pyramid=2 / b_adapt=2 / b_bias=0 / direct=3 / weightb=1 / open_gop=0 / weightp=2 / keyint=240 / keyint_min=23 / scenecut=40 / intra_refresh=0 / rc=2pass / mbtree=0 / bitrate=6370 / ratetol=2.0 / qcomp=0.60 / qpmin=0 / qpmax=69 / qpstep=4 / cplxblur=20.0 / qblur=0.5 / ip_ratio=1.40 / pb_ratio=1.30 / aq=2:0.70
Language : English
Default : Yes
Forced : No
Audio #1
ID : 2
Format : AC-3
Format/Info : Audio Coding 3
Mode extension : CM (complete main)
Format settings, Endianness : Big
Codec ID : A_AC3
Duration : 1h 50mn
Bit rate mode : Constant
Bit rate : 448 Kbps
Channel(s) : 6 channels
Channel positions : Front: L C R, Side: L R, LFE
Sampling rate : 48.0 KHz
Bit depth : 16 bits
Compression mode : Lossy
Stream size : 354 MiB (6%)
Title : MVO
Language : Russian
Default : Yes
Forced : No
Audio #2
ID : 3
Format : AC-3
Format/Info : Audio Coding 3
Mode extension : CM (complete main)
Format settings, Endianness : Big
Codec ID : A_AC3
Duration : 1h 50mn
Bit rate mode : Constant
Bit rate : 640 Kbps
Channel(s) : 6 channels
Channel positions : Front: L C R, Side: L R, LFE
Sampling rate : 48.0 KHz
Bit depth : 16 bits
Compression mode : Lossy
Stream size : 506 MiB (9%)
Title : Jpn
Language : Japanese
Default : No
Forced : No
Text
ID : 4
Format : UTF-8
Codec ID : S_TEXT/UTF8
Codec ID/Info : UTF-8 Plain Text
Title : full
Language : Russian
Default : No
Forced : No


#77



   Похожие торренты   Торрент   Размер 
В этой теме нет новых непрочитанных сообщений. Железобетон / Tekkon Kinkurito (2006) BDRip от HQ-ViDEO

36 | 16

2.18 ГБ

В этой теме нет новых непрочитанных сообщений. Железобетон / Tekkon kinkurîto (2006) HDRip-AVC | iPhone | P

138 | 8

1.1 ГБ

В этой теме нет новых непрочитанных сообщений. Отступники / The Departed (2006) BDRip 1080p от NNNB | D, P2, A, L1

136 | 11

15.34 ГБ

В этой теме нет новых непрочитанных сообщений. Эрагон / Eragon (2006) BDRip 1080p от NNNB | D,P,A

299 | 56

7.76 ГБ

В этой теме нет новых непрочитанных сообщений. Дежа вю / Deja Vu (2006) BDRip 1080p от NNNB | D,P,P2,A

248 | 58

12.64 ГБ

В этой теме нет новых непрочитанных сообщений. Вавилон / Babel (2006) BDRip 1080p от NNNB | D, P, A

118 | 32

11.52 ГБ

В этой теме нет новых непрочитанных сообщений. Черная книга / Zwartboek (2006) BDRip 1080p от NNNB

277 | 50

11.5 ГБ




Вы не можете начинать темы
Вы не можете отвечать на сообщения
Вы не можете редактировать свои сообщения
Вы не можете удалять свои сообщения
Вы не можете добавлять вложения

Перейти:  
Для Мосгорсуда, Роскомнадзора и рекламодателей: mosgorsud-torrent[собачка]yandex.ru
 Вход
ppkBB3cker v.2 © 2008-2014 @ PPK
[ Time : 0.052s | 15 Queries | GZIP : On ]

Торрент трекер RUTOR.IN, Не можете зайти на rutor.org? Какой новый адрес рутор? Какое зеркало рутор? Не работает rutor.org и зеркала? Тогда наш торрент специально для вас. Rutor.in неофициальное зеркало rutor. В случае если у Вас заблокирован rutor или вдруг Вы не можете на него зайти, то Вы без труда сможете скачать бесплатно и без рекламы последние новинки кино, игр, сериалов и прочего у нас, на Rutor.in. Не нужно использовать прокси, чтобы зайти на рутор, достаточно воспользоваться нашим ресурсом. Все новые фильмы, игры, сериалы, книги и музыка за 2013 и 2014 годы через торрент бесплатно. Скачивайте фильмы в хорошем качестве, игры для пк, xbox, playstation без регистрации. У нас вы найдете новые Зарубежные сериалы и Русские сериалы 2013, 2014, 2015 годов. Оставайтесь с нами, качайте любимые фильмы, игры, сериалы, книги и музыку.