img image001 image001 image001 image001 image001 image001 image001 image001 image001 image001 image001 image001 image001 image001 image001

Planets Sun Sun Sun
Статистика раздачи
Автор: Nickolas3434 | Размер: 812.13 МБ | Добавлен: 25 окт 2014
Раздают: 3    Качают: 6
Скачать торрент
Скачать торрент
Описание торрента

СообщениеДобавлено: 25 окт 2014 

Информация о фильме
Название: Твоя апрельская ложь
Оригинальное название: Shigatsu wa Kimi no Uso / Your Lie in April / 四月は君の嘘
Страна: Япония
Год выхода: 2014
Жанр: романтика
Режиссер: Исигуро Кёхэй / Ishiguro Kyouhei / 石黒恭平
Автор оригинала: Аракава Наоси / Arakawa Naoshi / 新川直司
О фильме: История о том, как мальчик, когда-то игравший на пианино, встречает девочку-скрипачку.
Если не брать в расчет бесчисленные сериалы про идолов, музыкальных аниме найдется не так уж и много. Поэтому поклонникам жанра стоит присмотреться к осеннему двухсезоннику «Shigatsu wa Kimi no Uso», который, по иронии, как раз в апреле и закончится. И не думайте, что будет похоже на «Нодаме Кантабиле» - шедевр про классическую музыку из той же «Нойтамины». «Shigatsu» - произведение совершенно иного толка. Акцент здесь поставлен на запутанные отношения персонажей и переживания главного героя, а также музыку, при помощи которой раскрывается внутренний мир героев. Поклонникам музыкальных аниме и школьных драм однозначно стоит обратить внимание на сериал – выбор у них всё равно не так уж и велик.

Студия:
Продолжительность: ТВ (>22 эп.), 25 мин.
Перевод: Любительский (двухголосый)
Озвучка: loster01 & Emeri
Субтитры: отсутствуют
Полухардсаб: надписи, логотип
Перевод на русский: [AleX_MytH, Nachtwandler, Uker]
Файл
Качество: WEBRip [HorribleSubs]
Формат: MP4
Видео: 1280 x 720 (16:9) at 23.976 fps, AVC (x264), High@L3.0, 2507 Kbps avg, 0.113 bit/pixel, 8 bit
Аудио: 44.1 kHz, AAC, 2 ch, 128 kbps avg
Релиз от:
Общее
Полное имя : [le-production]_shigatsu_wa_kimi_no_uso_[rus]_[1280x720_x264]_[loster01_&_emeri][le-production]_shigatsu_wa_kimi_no_uso_[01]_[rus]_[1280x720_x264]_[loster01_&_emeri].mp4
Формат : MPEG-4
Профиль формата : Base Media
Идентификатор кодека : isom
Размер файла : 435 Мбайт
Продолжительность : 23 м.
Общий поток : 2639 Кбит/сек
Дата кодирования : UTC 2014-10-22 16:55:38
Дата пометки : UTC 2014-10-22 16:55:38
Правообладатель : LE-Production
Видео
Идентификатор : 1
Формат : AVC
Формат/Информация : Advanced Video Codec
Профиль формата : High@L3.0
Параметр CABAC формата : Да
Параметр ReFrames формата : 4 кадры
Идентификатор кодека : avc1
Идентификатор кодека/Информация : Advanced Video Coding
Продолжительность : 23 м.
Вид битрейта : Переменный
Битрейт : 2507 Кбит/сек
Максимальный битрейт : 18,4 Мбит/сек
Ширина : 1280 пикс.
Высота : 720 пикс.
Соотношение сторон : 16:9
Режим частоты кадров : Постоянный
Частота кадров : 23,976 кадр/сек
Цветовое пространство : YUV
Подвыборка цветности : 4:2:0
Битовая глубина : 8 бит
Тип развёртки : Прогрессивная
Бит/(Пиксели*Кадры) : 0.113
Размер потока : 413 Мбайт (95%)
Библиотека кодирования : x264 core 130 r2273 b3065e6
Настройки программы : cabac=1 / ref=1 / deblock=1:1:1 / analyse=0x3:0x3 / me=dia / subme=1 / psy=1 / psy_rd=0.40:0.00 / mixed_ref=0 / me_range=16 / chroma_me=1 / trellis=0 / 8x8dct=1 / cqm=0 / deadzone=21,11 / fast_pskip=1 / chroma_qp_offset=0 / threads=12 / lookahead_threads=2 / sliced_threads=0 / nr=0 / decimate=1 / interlaced=0 / bluray_compat=0 / constrained_intra=0 / bframes=5 / b_pyramid=2 / b_adapt=1 / b_bias=0 / direct=1 / weightb=1 / open_gop=0 / weightp=1 / keyint=250 / keyint_min=23 / scenecut=40 / intra_refresh=0 / rc=crf / mbtree=0 / crf=19.0 / qcomp=0.60 / qpmin=0 / qpmax=69 / qpstep=4 / ip_ratio=1.40 / pb_ratio=1.30 / aq=1:0.60
Язык : Russian
Дата кодирования : UTC 2014-10-22 16:55:38
Дата пометки : UTC 2014-10-22 16:55:47
Аудио
Идентификатор : 2
Формат : AAC
Формат/Информация : Advanced Audio Codec
Профиль формата : LC
Идентификатор кодека : 40
Продолжительность : 23 м.
Вид битрейта : Переменный
Битрейт : 128 Кбит/сек
Максимальный битрейт : 133 Кбит/сек
Канал(ы) : 2 канала(ов)
Расположение каналов : Front: L R
Частота : 44,1 КГц
Метод сжатия : С потерями
Размер потока : 21,1 Мбайт (5%)
Язык : Russian
Дата кодирования : UTC 2014-10-22 16:55:46
Дата пометки : UTC 2014-10-22 16:55:47
01 - Monotone / Colorful
02 - Friend A
03 - Inside Spring





   Похожие торренты   Торрент   Размер 
В этой теме нет новых непрочитанных сообщений. Твоя апрельская ложь / Shigatsu wa Kimi no Uso / Your Lie in April [TV] [01-02 из 22] (2014) WEBRip 720p | LE-Production

16 | 7

1.17 ГБ

В этой теме нет новых непрочитанных сообщений. Твоя апрельская ложь / Shigatsu wa Kimi no Uso / Your Lie in April [01-22 из 22] (2014-2015) HDTVRip 720p | KANSAI

236 | 27

6.81 ГБ

В этой теме нет новых непрочитанных сообщений. Твоя апрельская ложь / Shigatsu wa Kimi no Uso [01-02 из 22] (2014) WEBRip 720p | AniFilm

6 | 8

1009.8 МБ

В этой теме нет новых непрочитанных сообщений. Твоя апрельская ложь / Shigatsu wa Kimi no Uso [01-02 из 22] (2014) WEBRip 720p | AniFilm

18 | 12

671.34 МБ

В этой теме нет новых непрочитанных сообщений. Твоя апрельская ложь / Shigatsu wa Kimi no Uso [01 из 22] (2014) WEBRip 720p | AniFilm

18 | 5

337.18 МБ

В этой теме нет новых непрочитанных сообщений. Твоя апрельская ложь / Shigatsu wa Kimi no Uso [01-10 из 22] (2014) WEBRip 720p | AniFilm

35 | 8

3.32 ГБ

В этой теме нет новых непрочитанных сообщений. Твоя апрельская ложь / Shigatsu wa Kimi no Uso [01-04 из 22] (2014) WEBRip 720p | AniFilm

15 | 5

1.32 ГБ




Вы не можете начинать темы
Вы не можете отвечать на сообщения
Вы не можете редактировать свои сообщения
Вы не можете удалять свои сообщения
Вы не можете добавлять вложения

Перейти:  
Для Мосгорсуда, Роскомнадзора и рекламодателей: mosgorsud-torrent[собачка]yandex.ru
 Вход
ppkBB3cker v.2 © 2008-2014 @ PPK
[ Time : 0.043s | 15 Queries | GZIP : Off ]

Торрент трекер RUTOR.IN, Не можете зайти на rutor.org? Какой новый адрес рутор? Какое зеркало рутор? Не работает rutor.org и зеркала? Тогда наш торрент специально для вас. Rutor.in неофициальное зеркало rutor. В случае если у Вас заблокирован rutor или вдруг Вы не можете на него зайти, то Вы без труда сможете скачать бесплатно и без рекламы последние новинки кино, игр, сериалов и прочего у нас, на Rutor.in. Не нужно использовать прокси, чтобы зайти на рутор, достаточно воспользоваться нашим ресурсом. Все новые фильмы, игры, сериалы, книги и музыка за 2013 и 2014 годы через торрент бесплатно. Скачивайте фильмы в хорошем качестве, игры для пк, xbox, playstation без регистрации. У нас вы найдете новые Зарубежные сериалы и Русские сериалы 2013, 2014, 2015 годов. Оставайтесь с нами, качайте любимые фильмы, игры, сериалы, книги и музыку.