img image001 image001 image001 image001 image001 image001 image001 image001 image001 image001 image001 image001 image001 image001 image001

Planets Sun Sun Sun
Статистика раздачи
Автор: Nickolas3434 | Размер: 5.76 ГБ | Добавлен: 26 окт 2014
Раздают: 105    Качают: 29
Скачать торрент
Скачать торрент
Описание торрента

СообщениеДобавлено: 26 окт 2014 


#77
Информация о фильме
    Русское название: Королевские космические силы - Крылья Хоннеамиз
    Оригинальное название: Royal Space Force: The Wings of Honneamise
    Год выхода: 1987
    Жанр: аниме, мультфильм, фантастика, драма
    Режиссер: Ямага Хироюки
    Выпущено: Япония
    Продолжительность: 01:59:57
    Перевод: Дублированный, Авторский (Е.Рудой)
    В ролях: Масахиро Анзаи, Стивен Апостолина, Арлин Банас, Стивен Блум, Стив Бьюлен, Брайан Крэнстон, Кристофер де Гроот, Джейн Алан, Бэмби Дарро, Дороти Элиас-Фан и др.


Сюжет фильма
    В мире, в чем-то похожем, а в чем-то отличным от нашего собственного, живет студент Shirotsugu Ladhatt. Он стремился в военно-воздушные силы, но без образования смог попасть только в Королевские Космические Силы. К несчастью, эти Космические Силы — всего лишь трюк правительства, ещё никто ничего не смог сделать в космосе. Тем не менее, после того как наш герой встретил и влюбился в молодую миссионерку-идеалистку Riqunni, он решает сделать что-нибудь стоящее из хохмы под названием Королевские Космические Силы.
    Но после того, как странное сборище из впадающих в маразм стареющих ученых-ракетчиков добивается успехов на пути к космическому полету, неприятельское государство решает, что новая космическая технология может стать опасным оружием, и начинает саботировать проект. Shirotsugu, подстегиваемый своими безответными чувствами к миссионерке, храбрыми убийцами, снижениями бюджета и тотальной войной, сделает всё ради своей мечты о путешествии среди звезд…


Файл
    Качество: BDRip 1080p (исходник Blu-ray Disc Remux)
    Видео: 1788x1028, 6107 Кбит/сек, 23,976 кадр/сек, AVC, x264, High@L4.1, 1.739, 0.139 Бит/[Пиксели*Кадры]
    Аудио 1: AC-3, 128 Кбит/сек, 1 канала(ов), 48,0 КГц - Дублированный, ОРТ / Русский
    Аудио 2: AC-3, 192 Кбит/сек, 2 канала(ов), 48,0 КГц - Одноголосый закадровый, Е.Рудой / Русский
    Аудио 3: AC-3, 448 Кбит/сек, 6 канала(ов), 48,0 КГц - Оригинал / Японский
    Субтитры: Русские | Полные
    Форсированные субтитры: Нет
    Чаптеры (Главы): Есть



Сэмпл
Автор Рипа: Сообщество:



Format : Matroska
Format version : Version 2
File size : 5.76 GiB
Duration : 1h 59mn
Overall bit rate : 6 879 Kbps
Movie name : Королевские космические силы - Крылья Хоннеамиз.(1987).BDRip.1080p.[envy]
Encoded date : UTC 2014-10-25 06:20:42
Writing application : mkvmerge v5.8.0 ('No Sleep / Pillow') built on Sep 2 2012 15:37:04
Writing library : libebml v1.2.3 + libmatroska v1.3.0
Attachment : Yes
Video
ID : 1
Format : AVC
Format/Info : Advanced Video Codec
Format profile : High@L4.1
Format settings, CABAC : Yes
Format settings, ReFrames : 4 frames
Codec ID : V_MPEG4/ISO/AVC
Duration : 1h 59mn
Bit rate : 6 107 Kbps
Width : 1 788 pixels
Height : 1 028 pixels
Display aspect ratio : 1.739
Frame rate mode : Constant
Frame rate : 23.976 fps
Color space : YUV
Chroma subsampling : 4:2:0
Bit depth : 8 bits
Scan type : Progressive
Bits/(Pixel*Frame) : 0.139
Stream size : 5.01 GiB (87%)
Title : Королевские космические силы - Крылья Хоннеамиз.(1987).BDRip.1080p.[envy]
Writing library : x264 core 142 r2479 dd79a61
Encoding settings : cabac=1 / ref=4 / deblock=1:0:0 / analyse=0x3:0x113 / me=umh / subme=11 / psy=1 / psy_rd=1.00:0.00 / mixed_ref=1 / me_range=48 / chroma_me=1 / trellis=2 / 8x8dct=1 / cqm=0 / deadzone=21,11 / fast_pskip=0 / chroma_qp_offset=-2 / threads=12 / lookahead_threads=2 / sliced_threads=0 / nr=0 / decimate=1 / interlaced=0 / bluray_compat=0 / constrained_intra=0 / bframes=7 / b_pyramid=2 / b_adapt=2 / b_bias=0 / direct=3 / weightb=1 / open_gop=0 / weightp=2 / keyint=240 / keyint_min=23 / scenecut=40 / intra_refresh=0 / rc=2pass / mbtree=0 / bitrate=6107 / ratetol=2.0 / qcomp=0.60 / qpmin=0 / qpmax=69 / qpstep=4 / cplxblur=20.0 / qblur=0.5 / ip_ratio=1.40 / pb_ratio=1.30 / aq=2:1.00
Language : English
Default : Yes
Forced : No
Audio #1
ID : 2
Format : AC-3
Format/Info : Audio Coding 3
Mode extension : CM (complete main)
Format settings, Endianness : Big
Codec ID : A_AC3
Duration : 1h 59mn
Bit rate mode : Constant
Bit rate : 128 Kbps
Channel(s) : 1 channel
Channel positions : Front: C
Sampling rate : 48.0 KHz
Bit depth : 16 bits
Compression mode : Lossy
Stream size : 110 MiB (2%)
Title : Dub OPT
Language : Russian
Default : Yes
Forced : No
Audio #2
ID : 3
Format : AC-3
Format/Info : Audio Coding 3
Mode extension : CM (complete main)
Format settings, Endianness : Big
Codec ID : A_AC3
Duration : 1h 59mn
Bit rate mode : Constant
Bit rate : 192 Kbps
Channel(s) : 2 channels
Channel positions : Front: L R
Sampling rate : 48.0 KHz
Bit depth : 16 bits
Compression mode : Lossy
Stream size : 165 MiB (3%)
Title : Rudoj
Language : Russian
Default : No
Forced : No
Audio #3
ID : 4
Format : AC-3
Format/Info : Audio Coding 3
Mode extension : CM (complete main)
Format settings, Endianness : Big
Codec ID : A_AC3
Duration : 1h 59mn
Bit rate mode : Constant
Bit rate : 448 Kbps
Channel(s) : 6 channels
Channel positions : Front: L C R, Side: L R, LFE
Sampling rate : 48.0 KHz
Bit depth : 16 bits
Compression mode : Lossy
Stream size : 384 MiB (7%)
Title : Jpn
Language : Japanese
Default : No
Forced : No
Text
ID : 5
Format : UTF-8
Codec ID : S_TEXT/UTF8
Codec ID/Info : UTF-8 Plain Text
Title : full
Language : Russian
Default : No
Forced : No
Menu
00:00:00.000 : en:00:00:00.000
00:04:15.714 : en:00:04:15.714
00:31:19.002 : en:00:31:19.002
00:52:44.286 : en:00:52:44.286
01:26:31.186 : en:01:26:31.186
01:56:49.294 : en:01:56:49.294


#77



   Похожие торренты   Торрент   Размер 
В этой теме нет новых непрочитанных сообщений. Звёздные войны: Пробуждение силы / Star Wars: Episode VII - The Force Awakens (2015) BDRip 1080p от NNNB | Лицензия

1083 | 90

11.54 ГБ

В этой теме нет новых непрочитанных сообщений. Небо над Берлином / Крылья желания / Der Himmel über Berlin / Wings of Desire (1987) BDRip от HQ-ViDEO | P2

51 | 5

2.18 ГБ

В этой теме нет новых непрочитанных сообщений. Королевские воины / Убийцы полицейских / Royal Warriors / Wong ga jin si (1986) BDRip от HQCLUB

1 | 1

1.71 ГБ

В этой теме нет новых непрочитанных сообщений. Королевские воины / Убийцы полицейских / Royal Warriors / Wong ga jin si (1986) BDRip от KinoZalSat

12 | 4

1.45 ГБ

В этой теме нет новых непрочитанных сообщений. Королевские воины / Убийцы полицейских / Royal Warriors / Wong ga jin si (1986) BDRip 720p | A

53 | 30

3.92 ГБ

В этой теме нет новых непрочитанных сообщений. Звёздные войны: Пробуждение силы / Star Wars: Episode VII - The Force Awakens (2015) BDRip 1080p | iTunes

2712 | 388

17.56 ГБ

В этой теме нет новых непрочитанных сообщений. Звёздные войны: Пробуждение силы / Star Wars: Episode VII - The Force Awakens (2015) BDRip 1080p | Line

2792 | 284

15.83 ГБ




Вы не можете начинать темы
Вы не можете отвечать на сообщения
Вы не можете редактировать свои сообщения
Вы не можете удалять свои сообщения
Вы не можете добавлять вложения

Перейти:  
Для Мосгорсуда, Роскомнадзора и рекламодателей: mosgorsud-torrent[собачка]yandex.ru
 Вход
ppkBB3cker v.2 © 2008-2014 @ PPK
[ Time : 0.055s | 15 Queries | GZIP : Off ]

Торрент трекер RUTOR.IN, Не можете зайти на rutor.org? Какой новый адрес рутор? Какое зеркало рутор? Не работает rutor.org и зеркала? Тогда наш торрент специально для вас. Rutor.in неофициальное зеркало rutor. В случае если у Вас заблокирован rutor или вдруг Вы не можете на него зайти, то Вы без труда сможете скачать бесплатно и без рекламы последние новинки кино, игр, сериалов и прочего у нас, на Rutor.in. Не нужно использовать прокси, чтобы зайти на рутор, достаточно воспользоваться нашим ресурсом. Все новые фильмы, игры, сериалы, книги и музыка за 2013 и 2014 годы через торрент бесплатно. Скачивайте фильмы в хорошем качестве, игры для пк, xbox, playstation без регистрации. У нас вы найдете новые Зарубежные сериалы и Русские сериалы 2013, 2014, 2015 годов. Оставайтесь с нами, качайте любимые фильмы, игры, сериалы, книги и музыку.