img image001 image001 image001 image001 image001 image001 image001 image001 image001 image001 image001 image001 image001 image001 image001

Planets Sun Sun Sun
Статистика раздачи
Автор: Nickolas3434 | Размер: 5.75 ГБ | Добавлен: 01 ноя 2014
Раздают: 145    Качают: 24
Скачать торрент
Скачать торрент
Описание торрента

СообщениеДобавлено: 01 ноя 2014 


#77
Информация о фильме
    Русское название: Теккен. Кровная месть
    Оригинальное название: Tekken: Blood Vengeance
    Год выхода: 2011
    Жанр: мультфильм, фантастика, боевик
    Режиссер: Мори Ёити
    Выпущено: Япония
    Продолжительность: 01:32:10
    Перевод: Любительский (Многоголосый закадровый)
    В ролях: Тиба Иссин, Darren Daniels, Кайл Хеберт, Унсё Исидзука, Кэрри Керанен, Эрик Скотт Кимерер, Юки Мацуока, Мэри Элизабет МакГлинн, Аманда Селин Миллер, Мамору Мияно


Сюжет фильма
    Лин Сяою, мастер китайских боевых искусств, получает задание от Анны Вильямс из корпорации G, находящейся под командованием Казуи Мисима. Задача Лин состоит в том, чтобы проникнуть в качестве шпиона в Киотскую международную школу и найти студента по имени Син Камия. Однако Син совершает самоубийство по неизвестной причине, и раcследование Сяою заходит в тупик. После этого Лин встречает таинственную девушку по имени Алиса, и они продолжают расследование вместе. Они узнают, что Син, вероятно, был кем-то похищен. Сяою хочет спасти Сина, для этого она начинает самостоятельное расследование, но она попадает в огромные владения корпорации Мисима Заибацу, которые скрывают тайные родственные заговоры с участием членов семьи Мисима — Дзина Казама, Казуи Мисима и вероятнее всего скончавшегося Хейхати Мисима.


Файл
    Качество: BDRip 1080p (исходник Blu-ray Disc)
    Видео: 1920x1080, 8054 Кбит/сек, 23,976 кадр/сек, AVC, x264, High@L4.1, 16:9, 0.162 Бит/[Пиксели*Кадры]
    Аудио 1: AC-3, 448 Кбит/сек, 6 канала(ов), 48,0 КГц - Многоголосый закадровый, AniFilm / Русский
    Аудио 2: AC-3, 448 Кбит/сек, 6 канала(ов), 48,0 КГц - Оригинал / Японский
    Субтитры: Русские | Полные
    Форсированные субтитры: Нет
    Чаптеры (Главы): Нет



Сэмпл
Автор Рипа: Сообщество:



Format : Matroska
Format version : Version 2
File size : 5.75 GiB
Duration : 1h 32mn
Overall bit rate : 8 931 Kbps
Movie name : Теккен. Кровная месть.(2011).BDRip.1080p.[envy]
Encoded date : UTC 2014-10-28 14:23:22
Writing application : mkvmerge v5.8.0 ('No Sleep / Pillow') built on Sep 2 2012 15:37:04
Writing library : libebml v1.2.3 + libmatroska v1.3.0
Video
ID : 1
Format : AVC
Format/Info : Advanced Video Codec
Format profile : High@L4.1
Format settings, CABAC : Yes
Format settings, ReFrames : 4 frames
Codec ID : V_MPEG4/ISO/AVC
Duration : 1h 32mn
Bit rate : 8 054 Kbps
Width : 1 920 pixels
Height : 1 080 pixels
Display aspect ratio : 16:9
Frame rate mode : Constant
Frame rate : 23.976 fps
Color space : YUV
Chroma subsampling : 4:2:0
Bit depth : 8 bits
Scan type : Progressive
Bits/(Pixel*Frame) : 0.162
Stream size : 5.06 GiB (88%)
Title : Теккен. Кровная месть.(2011).BDRip.1080p.[envy]
Writing library : x264 core 142 r2479 dd79a61
Encoding settings : cabac=1 / ref=4 / deblock=1:0:0 / analyse=0x3:0x113 / me=umh / subme=11 / psy=1 / psy_rd=1.00:0.00 / mixed_ref=1 / me_range=48 / chroma_me=1 / trellis=2 / 8x8dct=1 / cqm=0 / deadzone=21,11 / fast_pskip=0 / chroma_qp_offset=-2 / threads=12 / lookahead_threads=2 / sliced_threads=0 / nr=0 / decimate=1 / interlaced=0 / bluray_compat=0 / constrained_intra=0 / bframes=7 / b_pyramid=2 / b_adapt=2 / b_bias=0 / direct=3 / weightb=1 / open_gop=0 / weightp=2 / keyint=240 / keyint_min=23 / scenecut=40 / intra_refresh=0 / rc=2pass / mbtree=0 / bitrate=8054 / ratetol=2.0 / qcomp=0.60 / qpmin=0 / qpmax=69 / qpstep=4 / cplxblur=20.0 / qblur=0.5 / ip_ratio=1.40 / pb_ratio=1.30 / aq=2:1.00
Language : English
Default : Yes
Forced : No
Audio #1
ID : 2
Format : AC-3
Format/Info : Audio Coding 3
Mode extension : CM (complete main)
Format settings, Endianness : Big
Codec ID : A_AC3
Duration : 1h 32mn
Bit rate mode : Constant
Bit rate : 448 Kbps
Channel(s) : 6 channels
Channel positions : Front: L C R, Side: L R, LFE
Sampling rate : 48.0 KHz
Bit depth : 16 bits
Compression mode : Lossy
Stream size : 295 MiB (5%)
Title : MVO AniFilm
Language : Russian
Default : Yes
Forced : No
Audio #2
ID : 3
Format : AC-3
Format/Info : Audio Coding 3
Mode extension : CM (complete main)
Format settings, Endianness : Big
Codec ID : A_AC3
Duration : 1h 32mn
Bit rate mode : Constant
Bit rate : 448 Kbps
Channel(s) : 6 channels
Channel positions : Front: L C R, Side: L R, LFE
Sampling rate : 48.0 KHz
Bit depth : 16 bits
Compression mode : Lossy
Stream size : 295 MiB (5%)
Title : Jpn
Language : Japanese
Default : No
Forced : No
Text
ID : 4
Format : UTF-8
Codec ID : S_TEXT/UTF8
Codec ID/Info : UTF-8 Plain Text
Title : full
Language : Russian
Default : No
Forced : No


#77



   Похожие торренты   Торрент   Размер 
В этой теме нет новых непрочитанных сообщений. Теккен: Кровная месть / Tekken: Blood Vengeance (2011) BDRip 1080p | 3D-Video | halfOU | L, L2, L1

154 | 49

6.17 ГБ

В этой теме нет новых непрочитанных сообщений. Теккен: Кровная месть / Tekken: Blood Vengeance (2011) HDRip | трейлер

0 | 4

19.33 МБ

В этой теме нет новых непрочитанных сообщений. Теккен: Кровавая месть / Tekken: Blood Vengeance (2011) BDRemux | 3D-Video | AniFilm

23 | 17

31.16 ГБ

В этой теме нет новых непрочитанных сообщений. Теккен 2 / Tekken: A Man Called X / Tekken: Kazuya's Revenge (2014) BDRip 720p | L2

982 | 109

3.88 ГБ

В этой теме нет новых непрочитанных сообщений. Теккен / Tekken (2010) BDRip 1080p

7 | 10

7.72 ГБ

В этой теме нет новых непрочитанных сообщений. Теккен / Tekken (2010) BDRip 1080p от HDReactor

7 | 7

8.01 ГБ

В этой теме нет новых непрочитанных сообщений. Теккен 2 / Tekken: A Man Called X / Tekken: Kazuya's Revenge (2014) HDRip от ImperiaFilm | КПК | L2

149 | 22

303.18 МБ




Вы не можете начинать темы
Вы не можете отвечать на сообщения
Вы не можете редактировать свои сообщения
Вы не можете удалять свои сообщения
Вы не можете добавлять вложения

Перейти:  
Для Мосгорсуда, Роскомнадзора и рекламодателей: mosgorsud-torrent[собачка]yandex.ru
 Вход
ppkBB3cker v.2 © 2008-2014 @ PPK
[ Time : 0.052s | 15 Queries | GZIP : Off ]

Торрент трекер RUTOR.IN, Не можете зайти на rutor.org? Какой новый адрес рутор? Какое зеркало рутор? Не работает rutor.org и зеркала? Тогда наш торрент специально для вас. Rutor.in неофициальное зеркало rutor. В случае если у Вас заблокирован rutor или вдруг Вы не можете на него зайти, то Вы без труда сможете скачать бесплатно и без рекламы последние новинки кино, игр, сериалов и прочего у нас, на Rutor.in. Не нужно использовать прокси, чтобы зайти на рутор, достаточно воспользоваться нашим ресурсом. Все новые фильмы, игры, сериалы, книги и музыка за 2013 и 2014 годы через торрент бесплатно. Скачивайте фильмы в хорошем качестве, игры для пк, xbox, playstation без регистрации. У нас вы найдете новые Зарубежные сериалы и Русские сериалы 2013, 2014, 2015 годов. Оставайтесь с нами, качайте любимые фильмы, игры, сериалы, книги и музыку.