img image001 image001 image001 image001 image001 image001 image001 image001 image001 image001 image001 image001 image001 image001 image001

Planets Sun Sun Sun
Статистика раздачи
Автор: Nickolas3434 | Размер: 1.06 ГБ | Добавлен: 05 ноя 2014
Раздают: 7    Качают: 7
Скачать торрент
Скачать торрент
Описание торрента

СообщениеДобавлено: 05 ноя 2014 

Информация о фильме
Название: Волшебник Кайто - Дело 1412 / Волшебник Кайто 1412
Оригинальное название: Magic Kaito 1412 / まじっく快斗1412
Страна: Япония
Год выхода: 2014
Жанр: приключения, комедия
Режиссер: Кудо Сусуму / Kudo Susumu / 工藤進
Автор оригинала: Аояма Госё / Aoyama Gosho / 青山剛昌
О фильме: У молодого фокусника (а по совместительству ученика старшей школы) Кайто Куробы есть один секрет: он - Кайто Кид, знаменитый во многих странах и разыскиваемый ими "вор-фантом". Кайто стал им после того, как однажды обнаружил, что его покойный отец был предыдущим Кайто Кидом. Позже ему удалось выяснить, что отец Кайто не погиб "из-за несчастного случая" во время своего магического представления, а был убит из-за того, что он не согласился украсть драгоценный камень Пандору для одной нехорошей организации. Теперь Кайто под личиной Кайто Кида пытается найти Пандору до того, как она окажется в рукой той организации, преследуемый инспектором Накамори и его отделом по поимке самого опасного вора.
Студия:
Продолжительность: ТВ (24 эп.), 25 мин.
Перевод: Любительский (двухголосый)
Озвучка: loster01 & Emeri
Субтитры: отсутствуют
Полухардсаб: надписи, логотип
Перевод на русский: [le-production]
Файл
Качество: HDTVRip [Leopard-Raws]
Формат: MP4
Видео: 1280 x 720 (16:9) at 23.976 fps, AVC (x264), High@L3.0, 1460 Kbps avg, 0.066 bit/pixel, 8 bit
Аудио: 48.0 kHz, AAC, 2 ch, 256 kbps avg
Релиз от:
Общее
Полное имя : [le-production]_magic_kaito_1412_[rus]_[1280x720_x264]_[loster01_&_emeri][le-production]_magic_kaito_1412_[01]_[rus]_[1280x720_x264]_[loster01_&_emeri].mp4
Формат : MPEG-4
Профиль формата : Base Media
Идентификатор кодека : isom
Размер файла : 299 Мбайт
Продолжительность : 24 м.
Общий поток : 1720 Кбит/сек
Дата кодирования : UTC 2014-10-14 07:56:10
Дата пометки : UTC 2014-10-14 07:56:10
Программа кодирования : Yamb 2.1.0.0 [http://yamb.unite-video.com]
Правообладатель : LE-Production
Видео
Идентификатор : 1
Формат : AVC
Формат/Информация : Advanced Video Codec
Профиль формата : High@L3.0
Параметр CABAC формата : Да
Параметр ReFrames формата : 4 кадры
Идентификатор кодека : avc1
Идентификатор кодека/Информация : Advanced Video Coding
Продолжительность : 24 м.
Вид битрейта : Переменный
Битрейт : 1460 Кбит/сек
Максимальный битрейт : 8037 Кбит/сек
Ширина : 1280 пикс.
Высота : 720 пикс.
Соотношение сторон : 16:9
Режим частоты кадров : Постоянный
Частота кадров : 23,976 кадр/сек
Цветовое пространство : YUV
Подвыборка цветности : 4:2:0
Битовая глубина : 8 бит
Тип развёртки : Прогрессивная
Бит/(Пиксели*Кадры) : 0.066
Размер потока : 254 Мбайт (85%)
Библиотека кодирования : x264 core 130 r2273 b3065e6
Настройки программы : cabac=1 / ref=1 / deblock=1:0:0 / analyse=0x3:0x3 / me=dia / subme=1 / psy=1 / psy_rd=1.00:0.00 / mixed_ref=0 / me_range=16 / chroma_me=1 / trellis=0 / 8x8dct=1 / cqm=0 / deadzone=21,11 / fast_pskip=1 / chroma_qp_offset=0 / threads=12 / lookahead_threads=2 / sliced_threads=0 / nr=0 / decimate=1 / interlaced=0 / bluray_compat=0 / constrained_intra=0 / bframes=3 / b_pyramid=2 / b_adapt=1 / b_bias=0 / direct=1 / weightb=1 / open_gop=0 / weightp=1 / keyint=250 / keyint_min=23 / scenecut=40 / intra_refresh=0 / rc=crf / mbtree=0 / crf=21.0 / qcomp=0.60 / qpmin=0 / qpmax=69 / qpstep=4 / ip_ratio=1.40 / pb_ratio=1.30 / aq=1:1.00
Язык : Russian
Дата кодирования : UTC 2014-10-14 07:56:10
Дата пометки : UTC 2014-10-14 07:56:16
Аудио
Идентификатор : 2
Формат : AAC
Формат/Информация : Advanced Audio Codec
Профиль формата : LC
Идентификатор кодека : 40
Продолжительность : 24 м.
Вид битрейта : Переменный
Битрейт : 256 Кбит/сек
Максимальный битрейт : 261 Кбит/сек
Канал(ы) : 2 канала(ов)
Расположение каналов : Front: L R
Частота : 48,0 КГц
Метод сжатия : С потерями
Размер потока : 44,5 Мбайт (15%)
Язык : Russian
Дата кодирования : UTC 2014-10-14 07:56:16
Дата пометки : UTC 2014-10-14 07:56:16
01 - Возвращение Кайто Кида
02 - Синее Начало
03 - Волшебник против шулера
04 - Дерзкий детектив
05 - Алая искусительница
06 - Черная Звезда






   Похожие торренты   Торрент   Размер 
В этой теме нет новых непрочитанных сообщений. Волшебник Кайто - Дело 1412 / Волшебник Кайто 1412 / Magic Kaito 1412 [TV] [01 из 24] (2014) HDTVRip 720p | LE-Production

14 | 5

298.6 МБ

В этой теме нет новых непрочитанных сообщений. Волшебник Кайто 1412 / Magic Kaito 1412 / Кайто Кид - вор-фантом! [TV] [01-05 из 24] (2014) HDTVRip 720 | Persona99

4 | 6

1.59 ГБ

В этой теме нет новых непрочитанных сообщений. Волшебник Кайто 1412 / Magic Kaito 1412 / Кайто Кид - вор-фантом! [TV] [01-10 из 24] (2014) HDTVRip 720 | Persona99

9 | 2

3.06 ГБ

В этой теме нет новых непрочитанных сообщений. Волшебник Кайто 1412 / Magic Kaito 1412 / Кайто Кид - вор-фантом! [TV] [01-24 из 24] (2014) HDTVRip 720 | Persona99

57 | 19

7.47 ГБ

В этой теме нет новых непрочитанных сообщений. Волшебник Кайто 1412 / Magic Kaito 1412 [01-02 из 24] (2014) HDTVRip 720p | L2

29 | 7

562.56 МБ

В этой теме нет новых непрочитанных сообщений. Волшебник Кайто 1412 / Magic Kaito 1412 [01-03 из 24] (2014) HDTVRip 720p | L2

5 | 2

841.85 МБ

В этой теме нет новых непрочитанных сообщений. Кайто Кид - вор-фантом! / Волшебник Кайто / Magic Kaito [TV Special] (2010-2012) HDTVRip 720 | Persona99

20 | 11

3.91 ГБ




Вы не можете начинать темы
Вы не можете отвечать на сообщения
Вы не можете редактировать свои сообщения
Вы не можете удалять свои сообщения
Вы не можете добавлять вложения

Перейти:  
Для Мосгорсуда, Роскомнадзора и рекламодателей: mosgorsud-torrent[собачка]yandex.ru
 Вход
ppkBB3cker v.2 © 2008-2014 @ PPK
[ Time : 1.039s | 15 Queries | GZIP : Off ]

Торрент трекер RUTOR.IN, Не можете зайти на rutor.org? Какой новый адрес рутор? Какое зеркало рутор? Не работает rutor.org и зеркала? Тогда наш торрент специально для вас. Rutor.in неофициальное зеркало rutor. В случае если у Вас заблокирован rutor или вдруг Вы не можете на него зайти, то Вы без труда сможете скачать бесплатно и без рекламы последние новинки кино, игр, сериалов и прочего у нас, на Rutor.in. Не нужно использовать прокси, чтобы зайти на рутор, достаточно воспользоваться нашим ресурсом. Все новые фильмы, игры, сериалы, книги и музыка за 2013 и 2014 годы через торрент бесплатно. Скачивайте фильмы в хорошем качестве, игры для пк, xbox, playstation без регистрации. У нас вы найдете новые Зарубежные сериалы и Русские сериалы 2013, 2014, 2015 годов. Оставайтесь с нами, качайте любимые фильмы, игры, сериалы, книги и музыку.