img image001 image001 image001 image001 image001 image001 image001 image001 image001 image001 image001 image001 image001 image001 image001

Planets Sun Sun Sun
Статистика раздачи
Автор: Nickolas3434 | Размер: 6.26 ГБ | Добавлен: 16 ноя 2014
Раздают: 108    Качают: 58
Скачать торрент
Скачать торрент
Описание торрента

СообщениеДобавлено: 16 ноя 2014 

Сборник полнометражных фильмов Синкая Макото / Collection of movies Shinkai Makoto


Информация о фильме
Название: Голос далекой звезды
Оригинальное название: Voices of a Distant Star / Hoshi no Koe / The Voices of a Distant Star / ほしのこえ
Страна: Япония
Год выхода: 2002
Жанр: фантастика, романтика, драма
Режиссер: Синкай Макото / Shinkai Makoto / 新海誠
О фильме: Действие происходит в 2046 году, ознаменованном открытием руин чужой цивилизации на Марсе. Человечество, совершившее гигантский скачок в технологии, планирует на следующий год отправку космической экспедиции. Микако и Нобору - старшеклассники. Но если следующей осенью Нобору продолжит учёбу, то Микако избрана достойной присоединиться к экпедиции. "Голоса далёких звёзд" - это история о любимых, разделённых пучинами космоса, единственным каналом общения которых служат послания SMS.
Студия:
Продолжительность: полнометражный фильм, 00:24:32
Перевод: Профессиональный (полное дублирование) | XLMedia
Субтитры: русские (софтсаб, *srt) - полные: XLMedia
Хардсаб: отсутствует
Файл
Качество: DVDRip
Формат: AVI
Видео: 672 x 512 (1.31:1), 25 fps, XviD build 73 ~2050 kbps avg, 0.238 bit/pixel
Аудио #1: RUS - 48 kHz, AC3 Dolby Digital, 3/2 (L,C,R,l,r) + LFE ch, ~448 kbps | XLMedia |
Аудио #2: JAP - 48 kHz, AC3 Dolby Digital, 3/2 (L,C,R,l,r) + LFE ch, ~448 kbps | Оригинал |
Автор рипа: BAXTOR5


Общее
Полное имя : Voices of a Distant Star - Голос Далекой ЗвездыVoices_of_a_Distant_Star_DVDRip_DUB.avi
Формат : AVI
Формат/Информация : Audio Video Interleave
Размер файла : 520 Мбайт
Продолжительность : 24 м.
Общий поток : 2960 Кбит/сек
Название фильма : Voices of a Distant Star
Программа кодирования : VirtualDubMod 1.5.10.3 | www.virtualdub-fr.org || (build 2550/release)
Видео
Идентификатор : 0
Формат : MPEG-4 Visual
Профиль формата : Advanced Simple@L5
Параметр BVOP формата : 1
Параметр QPel формата : Нет
Параметр GMC формата : Без точки перехода
Параметр матрицы формата : Выборочная
Идентификатор кодека : XVID
Идентификатор кодека/Подсказка : XviD
Продолжительность : 24 м.
Битрейт : 2050 Кбит/сек
Ширина : 672 пикс.
Высота : 512 пикс.
Соотношение сторон : 4:3
Частота кадров : 25,000 кадр/сек
Цветовое пространство : YUV
Подвыборка цветности : 4:2:0
Битовая глубина : 8 бит
Тип развёртки : Прогрессивная
Метод сжатия : С потерями
Бит/(Пиксели*Кадры) : 0.238
Размер потока : 360 Мбайт (69%)
Библиотека кодирования : XviD 73
Аудио #1
Идентификатор : 1
Формат : AC-3
Формат/Информация : Audio Coding 3
Расширение режима : CM (complete main)
Идентификатор кодека : 2000
Продолжительность : 24 м.
Вид битрейта : Постоянный
Битрейт : 448 Кбит/сек
Канал(ы) : 6 канала(ов)
Расположение каналов : Front: L C R, Side: L R, LFE
Частота : 48,0 КГц
Битовая глубина : 16 бит
Метод сжатия : С потерями
Размер потока : 78,6 Мбайт (15%)
Выравнивание : Разделение по промежуткам
Продолжительность промежутка : 40 мс. (1,00 видеокадр)
Время предзагрузки промежутка : 500 ms
Заголовок : Russian
Аудио #2
Идентификатор : 2
Формат : AC-3
Формат/Информация : Audio Coding 3
Расширение режима : CM (complete main)
Идентификатор кодека : 2000
Продолжительность : 24 м.
Вид битрейта : Постоянный
Битрейт : 448 Кбит/сек
Канал(ы) : 6 канала(ов)
Расположение каналов : Front: L C R, Side: L R, LFE
Частота : 48,0 КГц
Битовая глубина : 16 бит
Метод сжатия : С потерями
Размер потока : 78,6 Мбайт (15%)
Выравнивание : Разделение по промежуткам
Продолжительность промежутка : 40 мс. (1,00 видеокадр)
Время предзагрузки промежутка : 500 ms
Заголовок : Japanese

Информация о фильме
Название: За облаками
Оригинальное название: The Place Promised in Our Early Days / Beyond the Clouds, The Promised Place / Kumo no Mukou, Yakusoku no Basho / 雲のむこう、約束の場所
Страна: Япония
Год выхода: 2004
Жанр: фантастика, романтика, драма
Режиссер: Синкай Макото / Shinkai Makoto / 新海誠
О фильме: Согласно альтернативному варианту развития истории, после поражения во второй мировой войне Япония оказалась разделённой между союзниками - северный остров Хоккайдо аннексировал Советский Союз, а Хонсю и другими южными островами овладели американцы. Летом 1996 года Советы начали сооружать в своей зоне оккупации загадочное сооружение - башню столь исполинских размеров, что трое товарищей-старшеклассников с американского Хонсю, гуляющих вместе в пору школьных каникул, могли отчётливо видеть её контуры, возносящиеся в заоблачную высь. Друзья дали друг другу зарок, что однажды они построят аэроплан и раскроют секрет гигантской башни, но все планы рухнули, когда красавица Саюри Саватари, предмет тайных воздыханий двух её друзей, начала испытывать симптомы странной сонной болезни, и её отправили на лечение в Токио, а после окончания средней школы пути ребят разошлись. Спустя три года повзрослевший Хироки Фудзисава случайно узнаёт, что Саюри с тех пор пребывает в коме, и обращается за помощью к своему прежнему закадычному другу Такуя Сиракава, чтобы привести девушку в себя. Он ещё не знает, что бессознательное состояние Саюри напрямую связано с таинственной северной башней...
Студия: &
Продолжительность: полнометражный фильм, 01:30:20
Перевод: Профессиональный (полное дублирование) | XLMedia
Субтитры: русские (софтсаб, *srt) - полные: XLMedia; форсированные: XLMedia
Хардсаб: отсутствует
Файл
Качество: BDRip
Формат: AVI
Видео: 720 x 400 (1.80:1), 23.976 fps, XviD build 73 ~1920 kbps avg, 0.278 bit/pixel
Аудио #1: RUS - 48 kHz, AC3 Dolby Digital, 2/0 (L,R) ch, ~192 kbps | XLMedia |
Аудио #2: JAP - 48 kHz, AC3 Dolby Digital, 2/0 (L,R) ch, ~192 kbps | Оригинал |
Автор рипа: BAXTOR5


Общее
Полное имя : The Place Promised in Our Early Days - За облакамиThe_Place_Promised_in_Our_Early_Days_BDRip_DUB.avi
Формат : AVI
Формат/Информация : Audio Video Interleave
Размер файла : 1,46 Гбайт
Продолжительность : 1 ч. 30 м.
Общий поток : 2318 Кбит/сек
Название фильма : The Place Promised in Our Early Days
Программа кодирования : VirtualDubMod 1.5.10.2 (build 2540/release)
Библиотека кодирования : VirtualDubMod build 2540/release
Видео
Идентификатор : 0
Формат : MPEG-4 Visual
Профиль формата : Advanced Simple@L5
Параметр BVOP формата : 1
Параметр QPel формата : Нет
Параметр GMC формата : Без точки перехода
Параметр матрицы формата : Выборочная
Идентификатор кодека : XVID
Идентификатор кодека/Подсказка : XviD
Продолжительность : 1 ч. 30 м.
Битрейт : 1920 Кбит/сек
Ширина : 720 пикс.
Высота : 400 пикс.
Соотношение сторон : 16:9
Частота кадров : 23,976 кадр/сек
Цветовое пространство : YUV
Подвыборка цветности : 4:2:0
Битовая глубина : 8 бит
Тип развёртки : Прогрессивная
Метод сжатия : С потерями
Бит/(Пиксели*Кадры) : 0.278
Размер потока : 1,21 Гбайт (83%)
Библиотека кодирования : XviD 73
Аудио #1
Идентификатор : 1
Формат : AC-3
Формат/Информация : Audio Coding 3
Расширение режима : CM (complete main)
Идентификатор кодека : 2000
Продолжительность : 1 ч. 30 м.
Вид битрейта : Постоянный
Битрейт : 192 Кбит/сек
Канал(ы) : 2 канала(ов)
Расположение каналов : Front: L R
Частота : 48,0 КГц
Битовая глубина : 16 бит
Метод сжатия : С потерями
Размер потока : 124 Мбайт (8%)
Выравнивание : Разделение по промежуткам
Продолжительность промежутка : 42 мс. (1,00 видеокадр)
Время предзагрузки промежутка : 500 ms
Заголовок : Russian
Аудио #2
Идентификатор : 2
Формат : AC-3
Формат/Информация : Audio Coding 3
Расширение режима : CM (complete main)
Идентификатор кодека : 2000
Продолжительность : 1 ч. 30 м.
Вид битрейта : Постоянный
Битрейт : 192 Кбит/сек
Канал(ы) : 2 канала(ов)
Расположение каналов : Front: L R
Частота : 48,0 КГц
Битовая глубина : 16 бит
Метод сжатия : С потерями
Размер потока : 124 Мбайт (8%)
Выравнивание : Разделение по промежуткам
Продолжительность промежутка : 42 мс. (1,00 видеокадр)
Время предзагрузки промежутка : 500 ms
Заголовок : Japanese

Информация о фильме
Название: 5 сантиметров в секунду
Оригинальное название: 5 сантиметров в секунду / 5 Centimeters per Second / Byousoku 5 Centimeter / Byousoku 5 Centimeter - a chain of short stories about their distance / 秒速5センチメートル
Страна: Япония
Год выхода: 2007
Жанр: романтика, драма
Режиссер: Синкай Макото / Shinkai Makoto / 新海誠
О фильме: После окончания школы Тоно Такаки и Шинохару Акари уезжают далеко друг от друга, несмотря на связывающие их чувства. В один прекрасный день, посреди снежной бури, Такаки наконец-то приезжает увидеться с Акари.
* История первая: Отрывок о цветущей сакуре
После окончания начальной школы Такаки Тоно и его близкая подруга Акари Синохара вынуждены расстаться. Акари переводят в среднюю школу в префектуре Тотиги, а Такаки продолжает учиться в средней школе в Токио. Они пишут друг другу письма и снова обретают счастье от возможности разделить свои чувства друг с другом. Но так случилось, что спустя некоторое время уже семья Такаки вынуждена переехать в префектуру Кагосима. Поэтому он решает повидаться с Акари, поскольку потом они будут слишком далеко друг от друга и, возможно, уже не встретятся. Такаки отправляется на встречу с несколькими пересадками на поезде (синкансэне), но из-за снегопада поезда всё больше и больше отстают от расписания...
* История вторая: Космонавт
Такаки поступает в среднюю школу на Танэгасиме. В первый же день учебы Канаэ Сумида влюбляется в переведённого из Токио мальчика. Она ловит себя на том, что постоянно всюду ищет его глазами, но не осмеливается рассказать о своих чувствах, продолжая уже несколько лет любить Такаки Тоно безответно.
1999 год. Чувства Канаэ к Такаки только усиливаются, и когда до конца занятий остаётся полгода, она решается при следующей встрече признаться ему в любви...
* История третья: 5 сантиметров в секунду
Такаки Тоно настолько занят на работе, что не различает времена года и не замечает как быстро летит время, а ведь прошло уже несколько лет, после окончания университета. Такаки расстаётся со своей девушкой, прожив с ней вместе три года.
В начале весны 2008 года Такаки увольняется с работы. Ему кажется, что причин для этого - бесчисленное множество, и одновременно - что нет ни одной, которая убедила бы его самого до конца. В спокойный будний день он идет по улице и оказывается неподалёку от железнодорожного переезда, рядом с которым цветёт сакура. Навстречу Такаки шагает девушка. Её лицо кажется Такаки знакомым...

Студия:
Продолжительность: полнометражный фильм, 01:02:45
Перевод: Профессиональный (полное дублирование) | Reanimedia
Субтитры: русские (софтсаб, *srt) - полные: Reanimedia; форсированные: Reanimedia
Хардсаб: отсутствует
Файл
Качество: BDRip
Формат: AVI
Видео: 720 x 400 (1.80:1), 23.976 fps, XviD build 73 ~2050 kbps avg, 0.297 bit/pixel
Аудио #1: RUS - 48 kHz, AC3 Dolby Digital, 2/0 (L,R) ch, ~192 kbps | Reanimedia |
Аудио #2: JAP - 48 kHz, AC3 Dolby Digital, 2/0 (L,R) ch, ~192 kbps | Оригинал |
Автор рипа: Miheleniya


Общее
Полное имя : Byousoku 5 Centimeter - 5 сантиметров в секундуByousoku_5_Centimeter_BDRip_DUB.avi
Формат : AVI
Формат/Информация : Audio Video Interleave
Размер файла : 1,07 Гбайт
Продолжительность : 1 ч. 2 м.
Общий поток : 2449 Кбит/сек
Название фильма : Byousoku 5 Centimeter
Программа кодирования : VirtualDubMod 1.5.10.2 (build 2540/release)
Библиотека кодирования : VirtualDubMod build 2540/release
Видео
Идентификатор : 0
Формат : MPEG-4 Visual
Профиль формата : Advanced Simple@L5
Параметр BVOP формата : 1
Параметр QPel формата : Нет
Параметр GMC формата : Без точки перехода
Параметр матрицы формата : Выборочная
Идентификатор кодека : XVID
Идентификатор кодека/Подсказка : XviD
Продолжительность : 1 ч. 2 м.
Битрейт : 2050 Кбит/сек
Ширина : 720 пикс.
Высота : 400 пикс.
Соотношение сторон : 16:9
Частота кадров : 23,976 кадр/сек
Цветовое пространство : YUV
Подвыборка цветности : 4:2:0
Битовая глубина : 8 бит
Тип развёртки : Прогрессивная
Метод сжатия : С потерями
Бит/(Пиксели*Кадры) : 0.297
Размер потока : 920 Мбайт (84%)
Библиотека кодирования : XviD 73
Аудио #1
Идентификатор : 1
Формат : AC-3
Формат/Информация : Audio Coding 3
Расширение режима : CM (complete main)
Идентификатор кодека : 2000
Продолжительность : 1 ч. 2 м.
Вид битрейта : Постоянный
Битрейт : 192 Кбит/сек
Канал(ы) : 2 канала(ов)
Расположение каналов : Front: L R
Частота : 48,0 КГц
Битовая глубина : 16 бит
Метод сжатия : С потерями
Размер потока : 86,2 Мбайт (8%)
Выравнивание : Разделение по промежуткам
Продолжительность промежутка : 42 мс. (1,00 видеокадр)
Время предзагрузки промежутка : 500 ms
Заголовок : Russian
Аудио #2
Идентификатор : 2
Формат : AC-3
Формат/Информация : Audio Coding 3
Расширение режима : CM (complete main)
Идентификатор кодека : 2000
Продолжительность : 1 ч. 2 м.
Вид битрейта : Постоянный
Битрейт : 192 Кбит/сек
Канал(ы) : 2 канала(ов)
Расположение каналов : Front: L R
Частота : 48,0 КГц
Битовая глубина : 16 бит
Метод сжатия : С потерями
Размер потока : 86,2 Мбайт (8%)
Выравнивание : Разделение по промежуткам
Продолжительность промежутка : 42 мс. (1,00 видеокадр)
Время предзагрузки промежутка : 500 ms
Заголовок : Japanese

Информация о фильме
Название: Ловцы забытых голосов
Оригинальное название: Children Who Chase Lost Voices / Hoshi o Ou Kodomo / Hoshi wo Ou Kodomo / 星を追う子ども
Страна: Япония
Год выхода: 2011
Жанр: приключения, фэнтези, романтика
Режиссер: Синкай Макото / Shinkai Makoto / 新海誠
О фильме: Асуна - школьница, которая очень рано потеряла отца и теперь живет с мамой. Дома большую часть времени она проводит сама, так как мама работает в госпитале на ночных сменах. В школе у нее очень хорошая успеваемость, но друзей не так уж и много. Вечера она проводит на склоне холма, слушая старое радио с помощью кристалла, который достался ей в память о папе. Однажды по дороге на холм на нее нападает огромное создание, от которого ее спасает юноша по имени Шун. Через несколько дней Асуна узнает что он погиб, и отправляется в его мир чтобы вновь встретиться со своим другом.
Студия: &
Продолжительность: полнометражный фильм, 01:55:59
Перевод: Профессиональный (полное дублирование) | Reanimedia
Субтитры: русские (софтсаб, *srt) - полные: Reanimedia; полные: Advantage
Хардсаб: отсутствует
Файл
Качество: BDRip
Формат: AVI
Видео: 720 x 400 (1.80:1), 23.976 fps, XviD build 73 ~1876 kbps avg, 0.272 bit/pixel
Аудио #1: RUS - 48 kHz, AC3 Dolby Digital, 3/2 (L,C,R,l,r) + LFE ch, ~384 kbps | Reanimedia |
Аудио #2: JAP - 48 kHz, AC3 Dolby Digital, 3/2 (L,C,R,l,r) + LFE ch, ~384 kbps | Оригинал |
Автор рипа: Miheleniya


Общее
Полное имя : Children Who Chase Lost Voices - Ловцы забытых голосовChildren_Who_Chase_Lost_Voices_BDRip_DUB.avi
Формат : AVI
Формат/Информация : Audio Video Interleave
Профиль формата : OpenDML
Размер файла : 2,16 Гбайт
Продолжительность : 1 ч. 55 м.
Общий поток : 2662 Кбит/сек
Название фильма : Children Who Chase Lost Voices
Программа кодирования : VirtualDubMod 1.5.10.2 (build 2540/release)
Библиотека кодирования : VirtualDubMod build 2540/release
Видео
Идентификатор : 0
Формат : MPEG-4 Visual
Профиль формата : Advanced Simple@L5
Параметр BVOP формата : 1
Параметр QPel формата : Нет
Параметр GMC формата : Без точки перехода
Параметр матрицы формата : Выборочная
Идентификатор кодека : XVID
Идентификатор кодека/Подсказка : XviD
Продолжительность : 1 ч. 55 м.
Битрейт : 1876 Кбит/сек
Ширина : 720 пикс.
Высота : 400 пикс.
Соотношение сторон : 16:9
Частота кадров : 23,976 кадр/сек
Цветовое пространство : YUV
Подвыборка цветности : 4:2:0
Битовая глубина : 8 бит
Тип развёртки : Прогрессивная
Метод сжатия : С потерями
Бит/(Пиксели*Кадры) : 0.272
Размер потока : 1,52 Гбайт (70%)
Библиотека кодирования : XviD 73
Аудио #1
Идентификатор : 1
Формат : AC-3
Формат/Информация : Audio Coding 3
Расширение режима : CM (complete main)
Идентификатор кодека : 2000
Продолжительность : 1 ч. 55 м.
Вид битрейта : Постоянный
Битрейт : 384 Кбит/сек
Канал(ы) : 6 канала(ов)
Расположение каналов : Front: L C R, Side: L R, LFE
Частота : 48,0 КГц
Битовая глубина : 16 бит
Метод сжатия : С потерями
Размер потока : 319 Мбайт (14%)
Выравнивание : Разделение по промежуткам
Продолжительность промежутка : 42 мс. (1,00 видеокадр)
Время предзагрузки промежутка : 500 ms
Заголовок : Russian
Аудио #2
Идентификатор : 2
Формат : AC-3
Формат/Информация : Audio Coding 3
Расширение режима : CM (complete main)
Идентификатор кодека : 2000
Продолжительность : 1 ч. 55 м.
Вид битрейта : Постоянный
Битрейт : 384 Кбит/сек
Канал(ы) : 6 канала(ов)
Расположение каналов : Front: L C R, Side: L R, LFE
Частота : 48,0 КГц
Битовая глубина : 16 бит
Метод сжатия : С потерями
Размер потока : 319 Мбайт (14%)
Выравнивание : Разделение по промежуткам
Продолжительность промежутка : 42 мс. (1,00 видеокадр)
Время предзагрузки промежутка : 500 ms
Заголовок : Japanese

Информация о фильме
Название: Сад изящных слов / Сад слов
Оригинальное название: The Garden of Words / Kotonoha no Niwa / 言の葉の庭
Страна: Япония
Год выхода: 2013
Жанр: романтика, драма
Режиссер: Синкай Макото / Shinkai Makoto / 新海誠
О фильме: 15-летний Такао Акидзуки словно бы родился слишком поздно – он не любит токийскую суету, не особо ценит блага цивилизации, а на жизнь мечтает зарабатывать, став обувным мастером. Старшую школу Акидзуки тоже считает бессмысленной, потому не упускает случая пропустить уроки дождливым утром – ведь в парке в это время безлюдно, и можно спокойно насладиться природой, воплощая на бумаге дизайнерские идеи. Вот только в начале сезона дождей в любимой беседке Такао встречает незнакомую молодую женщину, которая при расставании прочла ему старинную танка…
Конечно же, потом они встретились вновь… и вновь, начали общаться, потому что самой природой люди созданы говорить друг с другом. Собственно, много слов героям и не понадобилось – ведь вокруг, в тиши чудесного сада, речь за них вели капли дождя, шум ветра, блеск молнии в разрывах туч и стихи, написанные за тысячу лет до нашего времени. Такао и Юкино (так ее звали) оказались на важном переломе своей жизни - а значит, встреча была не случайна, и посиделки под дождем дали каждому то, чего он на самом деле желал. А хотите узнать, чем все кончилось – смотрите фильм!
© Hollow, World Art
Студия: &
Продолжительность: полнометражный фильм, 00:46:00
Перевод: Профессиональный (полное дублирование) | Reanimedia
Субтитры: русские (софтсаб, *srt) - полные: Reanimedia
Хардсаб: отсутствует
Файл
Качество: BDRip
Формат: AVI
Видео: 720 x 400 (1.80:1), 23.976 fps, XviD build 73 ~2387 kbps avg, 0.346 bit/pixel
Аудио #1: RUS - 48 kHz, AC3 Dolby Digital, 3/2 (L,C,R,l,r) + LFE ch, ~448 kbps | Reanimedia |
Аудио #2: JAP - 48 kHz, AC3 Dolby Digital, 3/2 (L,C,R,l,r) + LFE ch, ~448 kbps | Оригинал |
Автор рипа: BAXTOR5


Общее
Полное имя : The Garden of Words - Сад изящных словThe_Garden_of_Words_BDRip_DUB.avi
Формат : AVI
Формат/Информация : Audio Video Interleave
Размер файла : 1,06 Гбайт
Продолжительность : 46 м.
Общий поток : 3297 Кбит/сек
Название фильма : The Garden of Words
Программа кодирования : VirtualDubMod 1.5.10.2 (build 2540/release)
Видео
Идентификатор : 0
Формат : MPEG-4 Visual
Профиль формата : Advanced Simple@L5
Параметр BVOP формата : 1
Параметр QPel формата : Нет
Параметр GMC формата : Без точки перехода
Параметр матрицы формата : Выборочная
Идентификатор кодека : XVID
Идентификатор кодека/Подсказка : XviD
Продолжительность : 46 м.
Битрейт : 2387 Кбит/сек
Ширина : 720 пикс.
Высота : 400 пикс.
Соотношение сторон : 16:9
Частота кадров : 23,976 кадр/сек
Цветовое пространство : YUV
Подвыборка цветности : 4:2:0
Битовая глубина : 8 бит
Тип развёртки : Прогрессивная
Метод сжатия : С потерями
Бит/(Пиксели*Кадры) : 0.346
Размер потока : 786 Мбайт (72%)
Библиотека кодирования : XviD 73
Аудио #1
Идентификатор : 1
Формат : AC-3
Формат/Информация : Audio Coding 3
Расширение режима : CM (complete main)
Идентификатор кодека : 2000
Продолжительность : 46 м.
Вид битрейта : Постоянный
Битрейт : 448 Кбит/сек
Канал(ы) : 6 канала(ов)
Расположение каналов : Front: L C R, Side: L R, LFE
Частота : 48,0 КГц
Битовая глубина : 16 бит
Метод сжатия : С потерями
Размер потока : 147 Мбайт (14%)
Выравнивание : Разделение по промежуткам
Продолжительность промежутка : 42 мс. (1,00 видеокадр)
Время предзагрузки промежутка : 500 ms
Заголовок : Russian
Аудио #2
Идентификатор : 2
Формат : AC-3
Формат/Информация : Audio Coding 3
Расширение режима : CM (complete main)
Идентификатор кодека : 2000
Продолжительность : 46 м.
Вид битрейта : Постоянный
Битрейт : 448 Кбит/сек
Канал(ы) : 6 канала(ов)
Расположение каналов : Front: L C R, Side: L R, LFE
Частота : 48,0 КГц
Битовая глубина : 16 бит
Метод сжатия : С потерями
Размер потока : 147 Мбайт (14%)
Выравнивание : Разделение по промежуткам
Продолжительность промежутка : 42 мс. (1,00 видеокадр)
Время предзагрузки промежутка : 500 ms
Заголовок : Japanese

Исходники: BDRemux - (За облаками; 5 сантиметров в секунду; Ловцы забытых голосов; Сад изящных слов) и DVD5 - (Голос далекой звезды)



   Похожие торренты   Торрент   Размер 
В этой теме нет новых непрочитанных сообщений. Сборник коротких фильмов ужасов / A Collection Of Short Horror Films (2002 - 2014) DVDRip от Brazzass

722 | 120

4.52 ГБ

В этой теме нет новых непрочитанных сообщений. Коллекция короткометражных мультфильмов Pixar / The Pixar Short Films Collection [Сборник из 18 фильмов] (1984-2009) BDRip

236 | 9

3.56 ГБ

В этой теме нет новых непрочитанных сообщений. Сборник зарубежных фильмов на мобильные устройства (1979-2013) HDRip-AVC, DVDRip-AVC | КПК

161 | 55

16.52 ГБ

В этой теме нет новых непрочитанных сообщений. Укуренные. Коллекция 6 фильмов / Cheech & Chong's. Collection (1978-1984) DVDRip

291 | 52

6.01 ГБ

В этой теме нет новых непрочитанных сообщений. Пятница, 13-е: Коллекция (9 фильмов) / Friday The 13th: Collection (1980-1993) DVDRip

637 | 55

12.29 ГБ

В этой теме нет новых непрочитанных сообщений. Тарзан. Полная коллекция приключений [12 фильмов из 12] / Tarzan Collection, The: Vol. 1-2 (1932-1948) DVDRip

38 | 20

17.21 ГБ

В этой теме нет новых непрочитанных сообщений. Элвис Пресли - Коллекция (26 фильмов) / Elvis Presley - Movie Collection (1956-1969) DVDRip

61 | 23

36.26 ГБ




Вы не можете начинать темы
Вы не можете отвечать на сообщения
Вы не можете редактировать свои сообщения
Вы не можете удалять свои сообщения
Вы не можете добавлять вложения

Перейти:  
Для Мосгорсуда, Роскомнадзора и рекламодателей: mosgorsud-torrent[собачка]yandex.ru
 Вход
ppkBB3cker v.2 © 2008-2014 @ PPK
[ Time : 0.052s | 15 Queries | GZIP : Off ]

cron