img image001 image001 image001 image001 image001 image001 image001 image001 image001 image001 image001 image001 image001 image001 image001

Planets Sun Sun Sun
Статистика раздачи
Автор: Nickolas3434 | Размер: 5.75 ГБ | Добавлен: 19 ноя 2014
Раздают: 208    Качают: 15
Скачать торрент
Скачать торрент
Описание торрента

СообщениеДобавлено: 19 ноя 2014 


#77
Информация о фильме
    Русское название: Небесные скитальцы
    Оригинальное название: The Sky Crawlers
    Год выхода: 2008
    Жанр: аниме, мультфильм, боевик, драма, приключения
    Режиссер: Мамору Осии
    Выпущено: Япония
    Продолжительность: 02:02:24
    Перевод: Любительский (Одноголосый закадровый)
    В ролях: Ринко Кикути, Рё Касэ, Сёсукэ Танихара, Мегуми Ямагути, Дайсукэ Хиракава, Такэвака Такума, Мугихито, Хоху Ютсука, Мабуки Андо, Мако Хайодо


Сюжет фильма
    В альтернативной, но очень похожей на нашу реальности идет война, в которой с обеих сторон участвуют лучшие пилоты, которые сражаются на винтовых самолетах с аналоговыми приборами.


Файл
    Качество: BDRip 1080p (исходник Blu-ray Disc)
    Видео: 1918x1080, 6094 Кбит/сек, 23,976 кадр/сек, AVC, x264, High@L4.1, 16:9, 0.123 Бит/[Пиксели*Кадры]
    Аудио 1: AC-3, 192 Кбит/сек, 2 канала(ов), 48,0 КГц - Одноголосый закадровый, 3df (NarutoFilm) / Русский
    Аудио 2: AC-3, 448 Кбит/сек, 6 канала(ов), 48,0 КГц - Оригинал / Японский
    Субтитры: Русские | Полные
    Форсированные субтитры: Нет
    Чаптеры (Главы): Есть



Сэмпл
Автор Рипа: Сообщество:



Format : Matroska
Format version : Version 2
File size : 5.75 GiB
Duration : 2h 2mn
Overall bit rate : 6 730 Kbps
Movie name : Небесные скитальцы.(2008).BDRip.1080p.[envy]
Encoded date : UTC 2014-11-16 11:12:44
Writing application : mkvmerge v5.8.0 ('No Sleep / Pillow') built on Sep 2 2012 15:37:04
Writing library : libebml v1.2.3 + libmatroska v1.3.0
Video
ID : 1
Format : AVC
Format/Info : Advanced Video Codec
Format profile : High@L4.1
Format settings, CABAC : Yes
Format settings, ReFrames : 4 frames
Codec ID : V_MPEG4/ISO/AVC
Duration : 2h 2mn
Bit rate : 6 094 Kbps
Width : 1 918 pixels
Height : 1 080 pixels
Display aspect ratio : 16:9
Frame rate mode : Constant
Frame rate : 23.976 fps
Color space : YUV
Chroma subsampling : 4:2:0
Bit depth : 8 bits
Scan type : Progressive
Bits/(Pixel*Frame) : 0.123
Stream size : 5.09 GiB (89%)
Title : Небесные скитальцы.(2008).BDRip.1080p.[envy]
Writing library : x264 core 142 r2479 dd79a61
Encoding settings : cabac=1 / ref=4 / deblock=1:-2:-1 / analyse=0x3:0x113 / me=umh / subme=11 / psy=1 / psy_rd=1.00:0.00 / mixed_ref=1 / me_range=48 / chroma_me=1 / trellis=2 / 8x8dct=1 / cqm=0 / deadzone=21,11 / fast_pskip=0 / chroma_qp_offset=-2 / threads=12 / lookahead_threads=2 / sliced_threads=0 / nr=0 / decimate=1 / interlaced=0 / bluray_compat=0 / constrained_intra=0 / bframes=7 / b_pyramid=2 / b_adapt=2 / b_bias=0 / direct=3 / weightb=1 / open_gop=0 / weightp=2 / keyint=240 / keyint_min=23 / scenecut=40 / intra_refresh=0 / rc=2pass / mbtree=0 / bitrate=6094 / ratetol=2.0 / qcomp=0.60 / qpmin=0 / qpmax=69 / qpstep=4 / cplxblur=20.0 / qblur=0.5 / ip_ratio=1.40 / pb_ratio=1.30 / aq=2:1.00
Language : English
Default : Yes
Forced : No
Audio #1
ID : 2
Format : AC-3
Format/Info : Audio Coding 3
Mode extension : CM (complete main)
Format settings, Endianness : Big
Codec ID : A_AC3
Duration : 2h 2mn
Bit rate mode : Constant
Bit rate : 192 Kbps
Channel(s) : 2 channels
Channel positions : Front: L R
Sampling rate : 48.0 KHz
Bit depth : 16 bits
Compression mode : Lossy
Stream size : 168 MiB (3%)
Title : 3df (NarutoFilm)
Language : Russian
Default : Yes
Forced : No
Audio #2
ID : 3
Format : AC-3
Format/Info : Audio Coding 3
Mode extension : CM (complete main)
Format settings, Endianness : Big
Codec ID : A_AC3
Duration : 2h 2mn
Bit rate mode : Constant
Bit rate : 448 Kbps
Channel(s) : 6 channels
Channel positions : Front: L C R, Side: L R, LFE
Sampling rate : 48.0 KHz
Bit depth : 16 bits
Compression mode : Lossy
Stream size : 392 MiB (7%)
Title : Jpn
Language : Japanese
Default : No
Forced : No
Text
ID : 4
Format : UTF-8
Codec ID : S_TEXT/UTF8
Codec ID/Info : UTF-8 Plain Text
Title : full [fuwaneko & Kitsune]
Language : Russian
Default : No
Forced : No
Menu
00:00:00.000 : en:Producers
00:01:03.147 : en:Sky Crawlers
01:56:09.671 : en:Ending Song
02:00:23.633 : en:Important scene after the credits


#77



   Похожие торренты   Торрент   Размер 
В этой теме нет новых непрочитанных сообщений. Явление / The Happening (2008) BDRip 1080p от NNNB | 60 fps

82 | 17

11.11 ГБ

В этой теме нет новых непрочитанных сообщений. Не оставляющий следа / Untraceable (2008) BDRip 1080p от NNNB | D, A

25 | 0

11.53 ГБ

В этой теме нет новых непрочитанных сообщений. Четыре Рождества / Four Christmases (2008) BDRip 1080p от NNNB | D, P

395 | 12

7.75 ГБ

В этой теме нет новых непрочитанных сообщений. Первое воскресенье / First Sunday (2008) BDRip 1080p от NNNB | P

15 | 14

7.75 ГБ

В этой теме нет новых непрочитанных сообщений. Совокупность лжи / Body of Lies (2008) BDRip 1080p от NNNB | D, P2, A

172 | 14

12.73 ГБ

В этой теме нет новых непрочитанных сообщений. Пылающая равнина / The Burning Plain (2008) BDRip 1080p от NNNB | P,P2

135 | 46

9.51 ГБ

В этой теме нет новых непрочитанных сообщений. Секретные материалы: 2 в 1 / The X-files: 2 in 1 (1998-2008) BDRip 1080p от NNNB

129 | 45

15.89 ГБ




Вы не можете начинать темы
Вы не можете отвечать на сообщения
Вы не можете редактировать свои сообщения
Вы не можете удалять свои сообщения
Вы не можете добавлять вложения

Перейти:  
Для Мосгорсуда, Роскомнадзора и рекламодателей: mosgorsud-torrent[собачка]yandex.ru
 Вход
ppkBB3cker v.2 © 2008-2014 @ PPK
[ Time : 0.050s | 15 Queries | GZIP : Off ]

Торрент трекер RUTOR.IN, Не можете зайти на rutor.org? Какой новый адрес рутор? Какое зеркало рутор? Не работает rutor.org и зеркала? Тогда наш торрент специально для вас. Rutor.in неофициальное зеркало rutor. В случае если у Вас заблокирован rutor или вдруг Вы не можете на него зайти, то Вы без труда сможете скачать бесплатно и без рекламы последние новинки кино, игр, сериалов и прочего у нас, на Rutor.in. Не нужно использовать прокси, чтобы зайти на рутор, достаточно воспользоваться нашим ресурсом. Все новые фильмы, игры, сериалы, книги и музыка за 2013 и 2014 годы через торрент бесплатно. Скачивайте фильмы в хорошем качестве, игры для пк, xbox, playstation без регистрации. У нас вы найдете новые Зарубежные сериалы и Русские сериалы 2013, 2014, 2015 годов. Оставайтесь с нами, качайте любимые фильмы, игры, сериалы, книги и музыку.