img image001 image001 image001 image001 image001 image001 image001 image001 image001 image001 image001 image001 image001 image001 image001

Planets Sun Sun Sun
Статистика раздачи
Автор: Nickolas3434 | Размер: 5.75 ГБ | Добавлен: 26 ноя 2014
Раздают: 159    Качают: 11
Скачать торрент
Скачать торрент
Описание торрента

СообщениеДобавлено: 26 ноя 2014 

Информация о фильме
Название: Девочка, покорившая время
Оригинальное название: The Girl Who Leapt Through Time
Год выхода: 2006
Жанр: аниме, мультфильм, фантастика, драма, мелодрама, комедия
Режиссер: Мамору Хосода
В ролях: Рииса Нака, Такуя Ишида, Mitsutaka Itakura, Аями Какиучи, Мицуки Танимура, Сачие Хара, Yuki Sekido, Мидори Андо, Shannon Chan-Kent, Эндрю Френсис

О фильме:
Семнадцатилетняя Макото Конно не слишком хорошо учится, часто опаздывает и не знает, кем хочет стать после окончания школы. По вечерам она играет с друзьями в бейсбол, каждое утро вскакивает на велосипед и торопится на урок. Но внезапно в ее привычной размеренной жизни случается странное событие, и Макото обретает способность перемещаться во времени…



Страна: Япония
Продолжительность: 01:38:24
Перевод: Дублированный, оригинал

Файл
Кодек: h.264
Качество: BDRip 1080p
Видео: 1920x1080, 23.976 fps, 7472 Kbps, Bits/(Pixel*Frame) 0.150
Звук #1: AC3, 448 Kbps, 6 channels (Дубляж)
Звук #2: AC3, 448 Kbps, 6 channels (Японский)
Субтитры: Русские

x264 [info]: frame I:1148 Avg QP:13.96 size:241650
x264 [info]: frame P:33231 Avg QP:16.30 size: 79100
x264 [info]: frame B:107065 Avg QP:15.59 size: 24299


Format : Matroska
Format version : Version 2
File size : 5.75 GiB
Duration : 1h 38mn
Overall bit rate : 8 367 Kbps
Encoded date : UTC 2014-11-23 15:10:59
Writing application : mkvmerge v5.8.0 ('No Sleep / Pillow') built on Sep 2 2012 15:37:04
Writing library : libebml v1.2.3 + libmatroska v1.3.0

Video
ID : 1
Format : AVC
Format/Info : Advanced Video Codec
Format profile : High@L4.1
Format settings, CABAC : Yes
Format settings, ReFrames : 4 frames
Codec ID : V_MPEG4/ISO/AVC
Duration : 1h 38mn
Bit rate : 7 472 Kbps
Width : 1 920 pixels
Height : 1 080 pixels
Display aspect ratio : 16:9
Frame rate mode : Constant
Frame rate : 23.976 fps
Color space : YUV
Chroma subsampling : 4:2:0
Bit depth : 8 bits
Scan type : Progressive
Bits/(Pixel*Frame) : 0.150
Stream size : 5.02 GiB (87%)
Writing library : x264 core 130 r2273 b3065e6
Encoding settings : cabac=1 / ref=4 / deblock=1:-2:-2 / analyse=0x3:0x133 / me=umh / subme=11 / psy=1 / psy_rd=1.00:0.20 / mixed_ref=1 / me_range=32 / chroma_me=1 / trellis=2 / 8x8dct=1 / cqm=0 / deadzone=21,11 / fast_pskip=0 / chroma_qp_offset=-3 / threads=6 / lookahead_threads=1 / sliced_threads=0 / nr=0 / decimate=0 / interlaced=0 / bluray_compat=0 / constrained_intra=0 / bframes=8 / b_pyramid=2 / b_adapt=2 / b_bias=0 / direct=3 / weightb=1 / open_gop=0 / weightp=2 / keyint=240 / keyint_min=23 / scenecut=40 / intra_refresh=0 / rc=2pass / mbtree=0 / bitrate=7472 / ratetol=1.0 / qcomp=0.60 / qpmin=0 / qpmax=69 / qpstep=4 / cplxblur=20.0 / qblur=0.5 / ip_ratio=1.40 / pb_ratio=1.30 / aq=1:1.00
Language : English
Default : Yes
Forced : No

Audio #1
ID : 2
Format : AC-3
Format/Info : Audio Coding 3
Mode extension : CM (complete main)
Format settings, Endianness : Big
Codec ID : A_AC3
Duration : 1h 38mn
Bit rate mode : Constant
Bit rate : 448 Kbps
Channel(s) : 6 channels
Channel positions : Front: L C R, Side: L R, LFE
Sampling rate : 48.0 KHz
Bit depth : 16 bits
Compression mode : Lossy
Stream size : 315 MiB (5%)
Title : Rus
Language : Russian
Default : Yes
Forced : No

Audio #2
ID : 3
Format : AC-3
Format/Info : Audio Coding 3
Mode extension : CM (complete main)
Format settings, Endianness : Big
Codec ID : A_AC3
Duration : 1h 38mn
Bit rate mode : Constant
Bit rate : 448 Kbps
Channel(s) : 6 channels
Channel positions : Front: L C R, Side: L R, LFE
Sampling rate : 48.0 KHz
Bit depth : 16 bits
Compression mode : Lossy
Stream size : 315 MiB (5%)
Title : Jpn
Language : Japanese
Default : No
Forced : No

Text
ID : 4
Format : PGS
Muxing mode : zlib
Codec ID : S_HDMV/PGS
Codec ID/Info : The same subtitle format used on BDs/HD-DVDs
Title : Rus
Language : Russian
Default : Yes
Forced : No





   Похожие торренты   Торрент   Размер 
В этой теме нет новых непрочитанных сообщений. Девочка, покорившая время / The Girl Who Leapt Through Time / Toki o kakeru shojo (2006) BDRip от HQ-ViDEO

42 | 5

1.46 ГБ

В этой теме нет новых непрочитанных сообщений. Девочка, покорившая время / Toki wo Kakeru Shoujo / The Girl Who Leapt Through Time (2006) BDRip HURTOM

2 | 5

1.77 ГБ

В этой теме нет новых непрочитанных сообщений. Девочка, покорившая время / Toki wo Kakeru Shoujo / Time Traveller (2010) BDRip-AVC от MediaClub | L1

122 | 21

1.68 ГБ

В этой теме нет новых непрочитанных сообщений. Девочка, покорившая время / Toki o kakeru shôjo / Time Traveller (2010) BDRip 720p от KinoRay | L1

46 | 12

4 ГБ

В этой теме нет новых непрочитанных сообщений. Девочка, покорившая время / Toki wo Kakeru Shoujo / Time Traveller (2010) HDRip

4 | 4

1.68 ГБ

В этой теме нет новых непрочитанных сообщений. Девочка, покорившая время / Toki wo Kakeru Shoujo (2006) DVDRip

99 | 4

1.36 ГБ

В этой теме нет новых непрочитанных сообщений. Девочка, покорившая время / Toki wo Kakeru Shoujo (2006) HDRip 720p

17 | 6

1.41 ГБ




Вы не можете начинать темы
Вы не можете отвечать на сообщения
Вы не можете редактировать свои сообщения
Вы не можете удалять свои сообщения
Вы не можете добавлять вложения

Перейти:  
Для Мосгорсуда, Роскомнадзора и рекламодателей: mosgorsud-torrent[собачка]yandex.ru
 Вход
ppkBB3cker v.2 © 2008-2014 @ PPK
[ Time : 0.074s | 15 Queries | GZIP : Off ]

Торрент трекер RUTOR.IN, Не можете зайти на rutor.org? Какой новый адрес рутор? Какое зеркало рутор? Не работает rutor.org и зеркала? Тогда наш торрент специально для вас. Rutor.in неофициальное зеркало rutor. В случае если у Вас заблокирован rutor или вдруг Вы не можете на него зайти, то Вы без труда сможете скачать бесплатно и без рекламы последние новинки кино, игр, сериалов и прочего у нас, на Rutor.in. Не нужно использовать прокси, чтобы зайти на рутор, достаточно воспользоваться нашим ресурсом. Все новые фильмы, игры, сериалы, книги и музыка за 2013 и 2014 годы через торрент бесплатно. Скачивайте фильмы в хорошем качестве, игры для пк, xbox, playstation без регистрации. У нас вы найдете новые Зарубежные сериалы и Русские сериалы 2013, 2014, 2015 годов. Оставайтесь с нами, качайте любимые фильмы, игры, сериалы, книги и музыку.