img image001 image001 image001 image001 image001 image001 image001 image001 image001 image001 image001 image001 image001 image001 image001

Planets Sun Sun Sun
Статистика раздачи
Автор: Nickolas3434 | Размер: 2.4 ГБ | Добавлен: 26 ноя 2014
Раздают: 17    Качают: 10
Скачать торрент
Скачать торрент
Описание торрента

СообщениеДобавлено: 26 ноя 2014 


Название: Судьба/Ночь Схватки: Бесконечных клинков край
Оригинальное название: Fate/Stay Night: Unlimited Blade Works
Год выхода: 2014
Жанр: приключения, фэнтези, романтика, драма
Режиссер: Миура Такахиро

Думаю, все знают, что такое Фейт и о чем оно.
Так что расскажу подробнее именно про это ТВ.
Это НЕ продолжение Фейта, что выходил в 2006ом году.
Это нечто вроде рекапа ТВ 2006ого года, только теперь глав героями будут Тосака Рин и Арчер и совершать они будут другие поступки и сюжет будет развиваться по другому.
00-01 серии будут длиной в 45 минут. 25 минутный тайминг серий пойдет со 02 серии.
Так же в показе будет сезонный перерыв (00-12)(13 серий) в осеннем сезоне (Октябрь - конец Декабря) и 13-24(12 серий) в весеннем сезоне (Апреле). В зимнем сезоне (Январь - конец Марта) показа НЕ БУДЕТ!

Общее
Полное имя : [AniDub]_Fate_-_Stay_Night_-_Unlimited_Blade_Works_[720p]_[JAM_HC][AniDub]_Fate_-_Stay_Night_-_Unlimited_Blade_Works_[01]_[720p_x264_Aac]_[JAM_HC].mp4
Формат : MPEG-4
Профиль формата : Base Media
Идентификатор кодека : isom
Размер файла : 582 Мбайт
Продолжительность : 47 м.
Режим общего битрейта : Переменный
Общий поток : 1696 Кбит/сек
Дата кодирования : UTC 2014-10-16 19:32:53
Дата пометки : UTC 2014-10-16 19:32:53
Программа кодирования : Yamb 2.1.0.0 [http://yamb.unite-video.com]

Видео
Идентификатор : 1
Формат : AVC
Формат/Информация : Advanced Video Codec
Профиль формата : High@L4.1
Параметр CABAC формата : Да
Параметр ReFrames формата : 4 кадра
Идентификатор кодека : avc1
Идентификатор кодека/Информация : Advanced Video Coding
Продолжительность : 47 м.
Битрейт : 1500 Кбит/сек
Максимальный битрейт : 17,1 Мбит/сек
Ширина : 1280 пикселей
Высота : 720 пикселей
Соотношение сторон : 16:9
Режим частоты кадров : Постоянный
Частота кадров : 23,976 кадра/сек
Цветовое пространство : YUV
Субдискретизация насыщенности : 4:2:0
Битовая глубина : 8 бит
Тип развёртки : Прогрессивная
Бит/(Пиксели*Кадры) : 0.068
Размер потока : 515 Мбайт (88%)
Заголовок : 264
Библиотека кодирования : x264 core 129 r2245+729M 1a52e03
Настройки программы : cabac=1 / ref=4 / deblock=1:1:-1 / analyse=0x3:0x113 / me=umh / subme=9 / psy=1 / fade_compensate=0.00 / psy_rd=1.00:0.00 / mixed_ref=1 / me_range=24 / chroma_me=1 / trellis=2 / 8x8dct=1 / cqm=0 / deadzone=21,11 / fast_pskip=1 / chroma_qp_offset=-2 / threads=8 / lookahead_threads=1 / sliced_threads=0 / nr=0 / decimate=1 / interlaced=0 / bluray_compat=0 / constrained_intra=0 / fgo=0 / bframes=9 / b_pyramid=2 / b_adapt=2 / b_bias=0 / direct=1 / weightb=1 / open_gop=0 / weightp=2 / keyint=240 / keyint_min=24 / scenecut=40 / intra_refresh=0 / rc=crf / mbtree=0 / crf=18.5 / qcomp=0.72 / qpmin=0 / qpmax=69 / qpstep=4 / ip_ratio=1.40 / pb_ratio=1.30 / aq=1:0.85
Дата кодирования : UTC 2014-10-11 21:35:47
Дата пометки : UTC 2014-10-16 19:33:03
Основные цвета : BT.709
Характеристики трансфера : BT.709
Коэффициенты матрицы : BT.709

Аудио
Идентификатор : 2
Формат : AAC
Формат/Информация : Advanced Audio Codec
Профиль формата : LC
Идентификатор кодека : 40
Продолжительность : 47 м.
Вид битрейта : Переменный
Битрейт : 192 Кбит/сек
Максимальный битрейт : 196 Кбит/сек
Каналы : 2 канала
Расположение каналов : Front: L R
Частота : 48,0 КГц
Метод сжатия : С потерями
Размер потока : 65,9 Мбайт (11%)
Язык : Russian
Дата кодирования : UTC 2014-10-16 19:32:57
Дата пометки : UTC 2014-10-16 19:33:03

Страна: Япония
Продолжительность: (24 эп.), 25 мин. нулевая и первая серии длиной по 45 минут
Кодек: MP4
Качество: HDTV-Rip 720p
Видео: 1280x720, 23.976 fps, ~ 1696 Кбит/сек
Звук: : RU - AAC, 48.0Hz, 192 Кбит/сек

Переводчики: Кто-то
Озвучивание: Любительский двухголосый закадровый JAM & Гамлетка Цезаревна
Тайминг и Работа со звуком: Al'pair & Deven & SuNRiZ




   Похожие торренты   Торрент   Размер 
В этой теме нет новых непрочитанных сообщений. Судьба/Ночь Схватки: Бесконечных клинков край / Fate/Stay Night: Unlimited Blade Works [00-03 из 24] (2014) HDTVRip 720 | JAM & HC

11 | 3

1.83 ГБ

В этой теме нет новых непрочитанных сообщений. Судьба: Ночь Схватки / Gekijouban Fate/Stay Night: Unlimited Blade Works (2010) BDRip 720p | AniFilm

96 | 13

4.94 ГБ

В этой теме нет новых непрочитанных сообщений. Судьба: Ночь Схватки OVA / Fate/Stay Night OVA [1 из 2] (2010) HDTV

30 | 5

583.3 МБ

В этой теме нет новых непрочитанных сообщений. Судьба: Ночь Схватки OVA / Fate/Stay Night OVA [2 из 2] (2010) HDTV

46 | 3

666.28 МБ

В этой теме нет новых непрочитанных сообщений. Судьба. Ночь Прибытия / Fate. Stay Night [01-24 из 24] (2006) BDRip 720p

5 | 38

15.52 ГБ

В этой теме нет новых непрочитанных сообщений. Тихая ночь зомби / Ночь тишины, ночь зомби / Silent Night, Zombie Night (2009) HDRip

6 | 2

1.37 ГБ

В этой теме нет новых непрочитанных сообщений. Судьба фараона / Fate Of The Pharaoh (2011) PC

22 | 7

65.07 МБ




Вы не можете начинать темы
Вы не можете отвечать на сообщения
Вы не можете редактировать свои сообщения
Вы не можете удалять свои сообщения
Вы не можете добавлять вложения

Перейти:  
Для Мосгорсуда, Роскомнадзора и рекламодателей: mosgorsud-torrent[собачка]yandex.ru
 Вход
ppkBB3cker v.2 © 2008-2014 @ PPK
[ Time : 0.074s | 14 Queries | GZIP : Off ]

Торрент трекер RUTOR.IN, Не можете зайти на rutor.org? Какой новый адрес рутор? Какое зеркало рутор? Не работает rutor.org и зеркала? Тогда наш торрент специально для вас. Rutor.in неофициальное зеркало rutor. В случае если у Вас заблокирован rutor или вдруг Вы не можете на него зайти, то Вы без труда сможете скачать бесплатно и без рекламы последние новинки кино, игр, сериалов и прочего у нас, на Rutor.in. Не нужно использовать прокси, чтобы зайти на рутор, достаточно воспользоваться нашим ресурсом. Все новые фильмы, игры, сериалы, книги и музыка за 2013 и 2014 годы через торрент бесплатно. Скачивайте фильмы в хорошем качестве, игры для пк, xbox, playstation без регистрации. У нас вы найдете новые Зарубежные сериалы и Русские сериалы 2013, 2014, 2015 годов. Оставайтесь с нами, качайте любимые фильмы, игры, сериалы, книги и музыку.