img image001 image001 image001 image001 image001 image001 image001 image001 image001 image001 image001 image001 image001 image001 image001

Planets Sun Sun Sun
Статистика раздачи
Автор: Nickolas3434 | Размер: 321.99 МБ | Добавлен: 03 дек 2014
Раздают: 28    Качают: 5
Скачать торрент
Скачать торрент
Описание торрента

СообщениеДобавлено: 03 дек 2014 

Гармония ОВА / Harmonie


Перевод: Любительский (двухголосый) Cuba77, Shina
Субтитры: отсутствуют
Хардсаб: отсутствует

Формат: HDTVRip, mp4, H.264, AAC
Страна: Япония
Режиссер: Ёсиура Ясухиро
Жанр: повседневность, школа
Продолжительность: OVA (1 эп.), 25 мин.
Год выпуска: 2014
Озвучка: Cuba77, Shina

Описание: Каждый человек имеет свой маленький мир. Среди 34 учеников класса 2-1 столько разных миров. Мир Хонджё Акио - мой мир - заполнен горячими обсуждениями вчерашнего аниме с Ёшидой, Ватанабе и другими друзьями. Это веселое и комфортное место... Но я всегда удивляюсь. Удивляюсь миру Макины Юри, улыбающейся и окруженной прекрасными людьми, там, на другой стороне класса. Однажды я войду в ее мир. Но это не так просто, как кажется.

Видео: 1280x720 (16:9), 23.976 fps, MPEG-4 AVC (x264), Main@L3.1 ~1561 kbps avg, 0.071 bit/pixel
Аудио: 48.0 kHz, AAC LC, 2 ch, ~ 192 kbps avg

Общее
Полное имя : C:[AniDub]_Harmonie_OVA[AniDub]_Harmonie_OVA_[01_of_01]_[720p_h264_AAC]_[Cuba77_Shina].mp4
Формат : MPEG-4
Профиль формата : Base Media
Идентификатор кодека : isom
Размер файла : 322 Мбайт
Продолжительность : 25 м.
Режим общего битрейта : Переменный
Общий поток : 1757 Кбит/сек
Дата кодирования : UTC 2014-11-19 19:18:52
Дата пометки : UTC 2014-11-19 19:18:52
Программа кодирования : Yamb 2.1.0.0 [http://yamb.unite-video.com]

Видео
Идентификатор : 1
Формат : AVC
Формат/Информация : Advanced Video Codec
Профиль формата : Main@L3.1
Параметр CABAC формата : Да
Параметр ReFrames формата : 5 кадров
Идентификатор кодека : avc1
Идентификатор кодека/Информация : Advanced Video Coding
Продолжительность : 25 м.
Битрейт : 1561 Кбит/сек
Максимальный битрейт : 13,8 Мбит/сек
Ширина : 1280 пикселей
Высота : 720 пикселей
Соотношение сторон : 16:9
Режим частоты кадров : Постоянный
Частота кадров : 23,976 кадра/сек
Цветовое пространство : YUV
Субдискретизация насыщенности : 4:2:0
Битовая глубина : 8 бит
Тип развёртки : Прогрессивная
Бит/(Пиксели*Кадры) : 0.071
Размер потока : 286 Мбайт (89%)
Заголовок : h264@GPAC0.5.1-DEV-rev4929
Дата кодирования : UTC 2014-03-24 13:18:32
Дата пометки : UTC 2014-11-19 19:19:02

Аудио
Идентификатор : 2
Формат : AAC
Формат/Информация : Advanced Audio Codec
Профиль формата : LC
Идентификатор кодека : 40
Продолжительность : 25 м.
Вид битрейта : Переменный
Битрейт : 192 Кбит/сек
Максимальный битрейт : 196 Кбит/сек
Каналы : 2 канала
Расположение каналов : Front: L R
Частота : 48,0 КГц
Метод сжатия : С потерями
Размер потока : 35,2 Мбайт (11%)
Язык : Russian
Дата кодирования : UTC 2014-11-19 19:19:01
Дата пометки : UTC 2014-11-19 19:19:02







   Похожие торренты   Торрент   Размер 
В этой теме нет новых непрочитанных сообщений. Гармония / Harmonie [Movie] (2014) BDRip 720p от AniFilm | L

34 | 6

1 ГБ

В этой теме нет новых непрочитанных сообщений. Эхо Террора / Zankyou no Terror [01-04 из 11] (2014) HDTVRip 720p | AniDub

10 | 19

1.52 ГБ

В этой теме нет новых непрочитанных сообщений. Притворная Любовь / Nisekoi [01-20 из 20] (2014) HDTVRip 720p | Anidub

462 | 39

7.01 ГБ

В этой теме нет новых непрочитанных сообщений. Алдноа Зеро / Aldnoah.Zero [01-04 из 25] (2014) HDTVRip 720p AniDub

45 | 14

1.42 ГБ

В этой теме нет новых непрочитанных сообщений. Эхо Террора / Zankyou no Terror [01-03 из 11] (2014) HDTVRip 720p | AniDub

17 | 13

1.13 ГБ

В этой теме нет новых непрочитанных сообщений. Алдноа Зеро / Aldnoah.Zero [01-05 из 25] (2014) HDTVRip 720p | AniDub

85 | 34

1.75 ГБ

В этой теме нет новых непрочитанных сообщений. Фейри Тейл 2 / Fairy Tail [TV 2] [01-33] (2014) HDTVRip 720p от AniDUB | L1

13 | 21

12.82 ГБ




Вы не можете начинать темы
Вы не можете отвечать на сообщения
Вы не можете редактировать свои сообщения
Вы не можете удалять свои сообщения
Вы не можете добавлять вложения

Перейти:  
Для Мосгорсуда, Роскомнадзора и рекламодателей: mosgorsud-torrent[собачка]yandex.ru
 Вход
ppkBB3cker v.2 © 2008-2014 @ PPK
[ Time : 0.098s | 14 Queries | GZIP : Off ]

Торрент трекер RUTOR.IN, Не можете зайти на rutor.org? Какой новый адрес рутор? Какое зеркало рутор? Не работает rutor.org и зеркала? Тогда наш торрент специально для вас. Rutor.in неофициальное зеркало rutor. В случае если у Вас заблокирован rutor или вдруг Вы не можете на него зайти, то Вы без труда сможете скачать бесплатно и без рекламы последние новинки кино, игр, сериалов и прочего у нас, на Rutor.in. Не нужно использовать прокси, чтобы зайти на рутор, достаточно воспользоваться нашим ресурсом. Все новые фильмы, игры, сериалы, книги и музыка за 2013 и 2014 годы через торрент бесплатно. Скачивайте фильмы в хорошем качестве, игры для пк, xbox, playstation без регистрации. У нас вы найдете новые Зарубежные сериалы и Русские сериалы 2013, 2014, 2015 годов. Оставайтесь с нами, качайте любимые фильмы, игры, сериалы, книги и музыку.