img image001 image001 image001 image001 image001 image001 image001 image001 image001 image001 image001 image001 image001 image001 image001

Planets Sun Sun Sun
Статистика раздачи
Автор: Nickolas3434 | Размер: 1.2 ГБ | Добавлен: 02 дек 2014
Раздают: 129    Качают: 32
Скачать торрент
Скачать торрент
Описание торрента

СообщениеДобавлено: 02 дек 2014 

История любви Тамако / Tamako Love Story


Перевод: Любительский (многоголосый) AniDub
Субтитры: отсутствуют
Хардсаб: отсутствует

Формат: BDRip, mp4, H.264, AC3
Страна: Япония
Режиссер: Ямада Наоко
Жанр: комедия, повседневность
Продолжительность: 01:23:52
Год выпуска: 2014
Перевод на русский: Anipaladin
Тайминг и работа со звуком: Demons94, Lithium
Озвучка: Ancord, Nika Lenina, Trina_D, Shina, Гамлетка Цезаревна, 9ый Неизвестный, BalFor, Cuba77

Описание: Продолжение сериала «Лавочка Тамако». Юные герои, Тамако и Мочизо, обнаруживают, что их детская дружба вот-вот разовьётся во что-то большее. И это не может не беспокоить их обоих. А тут ещё Мочизо решил поехать в Токио учиться. Как же рассказать Тамако о своих чувствах и о том, что ему придётся надолго её покинуть?

Видео: 1280x720 (16:9), 23.976 fps, MPEG-4 AVC (x264), High@L4.0 ~1407 kbps avg, 8 bits
Аудио: Rus 48.0KHz, AC3, 2ch, ~ 640 Kbps avg

Общее
Полное имя : C:Downloads[AniDub]_Tamako_Love_Story_[BDRip_720p_h264_AC3]_[Ancord_NikaLenina_Trina_D_Shina_Hamletka_Cezarevna_9th_Unknown_BalFor_Cuba77].mp4
Формат : MPEG-4
Профиль формата : Base Media
Идентификатор кодека : isom
Размер файла : 1,20 Гбайт
Продолжительность : 1 ч. 23 м.
Общий поток : 2049 Кбит/сек
Дата кодирования : UTC 2014-11-24 09:18:21
Дата пометки : UTC 2014-11-24 09:18:21
Программа кодирования : Yamb 2.1.0.0 [http://yamb.unite-video.com]

Видео
Идентификатор : 1
Формат : AVC
Формат/Информация : Advanced Video Codec
Профиль формата : High@L4.0
Параметр CABAC формата : Да
Параметр ReFrames формата : 6 кадров
Идентификатор кодека : avc1
Идентификатор кодека/Информация : Advanced Video Coding
Продолжительность : 1 ч. 23 м.
Битрейт : 1407 Кбит/сек
Максимальный битрейт : 14,1 Мбит/сек
Ширина : 1280 пикселей
Высота : 720 пикселей
Соотношение сторон : 16:9
Режим частоты кадров : Постоянный
Частота кадров : 23,976 кадра/сек
Цветовое пространство : YUV
Субдискретизация насыщенности : 4:2:0
Битовая глубина : 8 бит
Тип развёртки : Прогрессивная
Бит/(Пиксели*Кадры) : 0.064
Размер потока : 844 Мбайт (69%)
Заголовок : Video
Дата кодирования : UTC 2014-10-16 07:53:32
Дата пометки : UTC 2014-11-24 09:20:19

Аудио
Идентификатор : 2
Формат : AC-3
Формат/Информация : Audio Coding 3
Расширение режима : CM (complete main)
Параметр Endianness формата : Big
Идентификатор кодека : ac-3
Продолжительность : 1 ч. 23 м.
Вид битрейта : Постоянный
Битрейт : 640 Кбит/сек
Каналы : 2 канала
Расположение каналов : Front: L R
Частота : 48,0 КГц
Битовая глубина : 16 бит
Метод сжатия : С потерями
Размер потока : 384 Мбайт (31%)
Язык : Russian
Дата кодирования : UTC 2014-11-24 09:19:25
Дата пометки : UTC 2014-11-24 09:20:19







   Похожие торренты   Торрент   Размер 
В этой теме нет новых непрочитанных сообщений. История любви Тамако / Tamako Love Story (2014) BDRip 720p | L1

47 | 18

1.03 ГБ

В этой теме нет новых непрочитанных сообщений. История любви Тамако / Tamako Love Story (2014) BDRip 1080p | L1

165 | 10

1.15 ГБ

В этой теме нет новых непрочитанных сообщений. Моя история!! / Ore Monogatari!! / My Love Story!! [01-06 из 24] (2015) HDTVRip 720p | AniDub

9 | 10

1.71 ГБ

В этой теме нет новых непрочитанных сообщений. Моя история!! / Ore Monogatari!! / My Love Story!! [01-05 из 24] (2015) HDTVRip 720p | AniDub

9 | 6

1.45 ГБ

В этой теме нет новых непрочитанных сообщений. История любви / Love Story (1970) BDRip 720p от Element team

2 | 24

2.2 ГБ

В этой теме нет новых непрочитанных сообщений. Капитализм: История любви / Capitalism: A Love Story (2009) BDRip 720p | L1

10 | 0

4.27 ГБ

В этой теме нет новых непрочитанных сообщений. Месть: История любви / Vengeance: A Love Story (2017) BDRip 720p | L

144 | 12

4.2 ГБ




Вы не можете начинать темы
Вы не можете отвечать на сообщения
Вы не можете редактировать свои сообщения
Вы не можете удалять свои сообщения
Вы не можете добавлять вложения

Перейти:  
Для Мосгорсуда, Роскомнадзора и рекламодателей: mosgorsud-torrent[собачка]yandex.ru
 Вход
ppkBB3cker v.2 © 2008-2014 @ PPK
[ Time : 0.043s | 15 Queries | GZIP : Off ]

cron