img image001 image001 image001 image001 image001 image001 image001 image001 image001 image001 image001 image001 image001 image001 image001

Planets Sun Sun Sun
Статистика раздачи
Автор: Nickolas3434 | Размер: 3.26 ГБ | Добавлен: 03 дек 2014
Раздают: 85    Качают: 26
Скачать торрент
Скачать торрент
Описание торрента

СообщениеДобавлено: 03 дек 2014 

Информация о фильме
Название: Призрак в доспехах: У истоков / Призрак в доспехах: Возникновение
Оригинальное название: Koukaku Kidoutai Arise: Ghost in the Shell / Ghost in the Shell: Arise / 攻殻機動隊ARISE -Ghost in the Shell-
Страна: Япония
Год выхода: 2013-2014
Жанр: приключения
Режиссер: Кисэ Кадзутика / Kise Kazuchika / 黄瀬和哉
Автор оригинала: Сиро Масамунэ / Shirow Masamune / 士郎正宗

О фильме: Итак, дело происходит в 2027 году, год спустя после завершения «четвёртой неядерной войны». Нью Порт Сити всё ещё не оправился окончательно от последствий боевых действий, но город уже вновь начинают сотрясать взрывы самоходных бомб. Примерно в то же время оказывается застрелен военный офицер, вовлеченный в незаконную торговлю оружием. В ходе расследования всего этого Дайске Арамаки из Отдела общественной безопасности встречает киборга и хакера экстра-класса Мотоко Кусанаги, приписанную к военному 501-ому секретному подразделению. Бато, сотрудник Арамаки и человек с «глазами, которые никогда не спят», подозревает, что именно Кусанаги ответственна за теракты. Тем временем Тогуса, детектив из префектуры Ниихама, одновременно расследует два убийства: в первом случае жертву застрелили, во втором жертва была проституткой. За самой же Мотоко пристально наблюдают глава 501-ого подразделения Куруцу и агенты-киборги.

Студия:

Продолжительность: OVA (4 эп.), 60 мин.
Выпуск: c 22.06.2013
Перевод: Любительский (двухголосый)
Озвучка: loster01 & Emeri
Субтитры: русские (полные, *srt; на надписи, *srt)
Хардсаб: отсутствует
Перевод на русский: Advokat & Kekcelt & pantsurevolution
Тайминг: Rin

Файл
Качество: HDRip [by Miheleniya]
Формат: AVI
Видео: 720 x 400 (1.80:1), 23.976 fps, XviD build 73 ~1950 kbps avg, ~0.28 bit/pixel
Звук:
Аудио #1 RUS - 48 kHz, AC3 Dolby Digital, 3/2 (L,C,R,l,r) + LFE ch, ~384 kbps
Аудио #2 JAP - 48 kHz, AC3 Dolby Digital, 3/2 (L,C,R,l,r) + LFE ch, ~384 kbps

Релиз от: | Семпл

Общее
Полное имя : [LE-Production]_GHOST_IN_THE_SHELL_ARISE_[HDRip]_[rus_jap_sub]_[HWP][LE-Production]_GHOST_IN_THE_SHELL_ARISE_[01]_[HDRip]_[rus_jap_sub]_[HWP]_[loster01&Emeri].avi
Формат : AVI
Формат/Информация : Audio Video Interleave
Размер файла : 1,10 Гбайт
Продолжительность : 58 м.
Общий поток : 2707 Кбит/сек
Программа кодирования : VirtualDubMod 1.5.10.2 (build 2540/release)
Библиотека кодирования : VirtualDubMod build 2540/release

Видео
Идентификатор : 0
Формат : MPEG-4 Visual
Профиль формата : Advanced Simple@L5
Параметр BVOP формата : 1
Параметр QPel формата : Нет
Параметр GMC формата : Без точки перехода
Параметр матрицы формата : Выборочная
Идентификатор кодека : XVID
Идентификатор кодека/Подсказка : XviD
Продолжительность : 58 м.
Битрейт : 1925 Кбит/сек
Ширина : 720 пикс.
Высота : 400 пикс.
Соотношение сторон : 16:9
Частота кадров : 23,976 кадр/сек
Цветовое пространство : YUV
Подвыборка цветности : 4:2:0
Битовая глубина : 8 бит
Тип развёртки : Прогрессивная
Метод сжатия : С потерями
Бит/(Пиксели*Кадры) : 0.279
Размер потока : 804 Мбайт (71%)
Библиотека кодирования : XviD 73

Аудио #1
Идентификатор : 1
Формат : AC-3
Формат/Информация : Audio Coding 3
Расширение режима : CM (complete main)
Идентификатор кодека : 2000
Продолжительность : 58 м.
Вид битрейта : Постоянный
Битрейт : 384 Кбит/сек
Канал(ы) : 6 канала(ов)
Расположение каналов : Front: L C R, Side: L R, LFE
Частота : 48,0 КГц
Битовая глубина : 16 бит
Метод сжатия : С потерями
Размер потока : 160 Мбайт (14%)
Выравнивание : Разделение по промежуткам
Продолжительность промежутка : 42 мс. (1,00 видеокадр)
Время предзагрузки промежутка : 500 ms
Заголовок : Rus (LE-production)

Аудио #2
Идентификатор : 2
Формат : AC-3
Формат/Информация : Audio Coding 3
Расширение режима : CM (complete main)
Идентификатор кодека : 2000
Продолжительность : 58 м.
Вид битрейта : Постоянный
Битрейт : 384 Кбит/сек
Канал(ы) : 6 канала(ов)
Расположение каналов : Front: L C R, Side: L R, LFE
Частота : 48,0 КГц
Битовая глубина : 16 бит
Метод сжатия : С потерями
Размер потока : 160 Мбайт (14%)
Выравнивание : Разделение по промежуткам
Продолжительность промежутка : 42 мс. (1,00 видеокадр)
Время предзагрузки промежутка : 500 ms
Заголовок : Jap




Общее
Полное имя : [LE-Production]_GHOST_IN_THE_SHELL_ARISE_[HDRip]_[rus_jap_sub]_[HWP][LE-Production]_GHOST_IN_THE_SHELL_ARISE_[02]_[HDRip]_[rus_jap_sub]_[HWP]_[loster01&Emeri].avi
Формат : AVI
Формат/Информация : Audio Video Interleave
Размер файла : 1,08 Гбайт
Продолжительность : 56 м.
Общий поток : 2751 Кбит/сек
Программа кодирования : VirtualDubMod 1.5.10.2 (build 2540/release)
Библиотека кодирования : VirtualDubMod build 2540/release

Видео
Идентификатор : 0
Формат : MPEG-4 Visual
Профиль формата : Advanced Simple@L5
Параметр BVOP формата : 1
Параметр QPel формата : Нет
Параметр GMC формата : Без точки перехода
Параметр матрицы формата : Выборочная
Идентификатор кодека : XVID
Идентификатор кодека/Подсказка : XviD
Продолжительность : 56 м.
Битрейт : 1969 Кбит/сек
Ширина : 720 пикс.
Высота : 400 пикс.
Соотношение сторон : 16:9
Частота кадров : 23,976 кадр/сек
Цветовое пространство : YUV
Подвыборка цветности : 4:2:0
Битовая глубина : 8 бит
Тип развёртки : Прогрессивная
Метод сжатия : С потерями
Бит/(Пиксели*Кадры) : 0.285
Размер потока : 793 Мбайт (72%)
Библиотека кодирования : XviD 73

Аудио #1
Идентификатор : 1
Формат : AC-3
Формат/Информация : Audio Coding 3
Расширение режима : CM (complete main)
Идентификатор кодека : 2000
Продолжительность : 56 м.
Вид битрейта : Постоянный
Битрейт : 384 Кбит/сек
Канал(ы) : 6 канала(ов)
Расположение каналов : Front: L C R, Side: L R, LFE
Частота : 48,0 КГц
Битовая глубина : 16 бит
Метод сжатия : С потерями
Размер потока : 155 Мбайт (14%)
Выравнивание : Разделение по промежуткам
Продолжительность промежутка : 42 мс. (1,00 видеокадр)
Время предзагрузки промежутка : 500 ms
Заголовок : Rus (LE-production)

Аудио #2
Идентификатор : 2
Формат : AC-3
Формат/Информация : Audio Coding 3
Расширение режима : CM (complete main)
Идентификатор кодека : 2000
Продолжительность : 56 м.
Вид битрейта : Постоянный
Битрейт : 384 Кбит/сек
Канал(ы) : 6 канала(ов)
Расположение каналов : Front: L C R, Side: L R, LFE
Частота : 48,0 КГц
Битовая глубина : 16 бит
Метод сжатия : С потерями
Размер потока : 155 Мбайт (14%)
Выравнивание : Разделение по промежуткам
Продолжительность промежутка : 42 мс. (1,00 видеокадр)
Время предзагрузки промежутка : 500 ms
Заголовок : Jap






   Похожие торренты   Торрент   Размер 
В этой теме нет новых непрочитанных сообщений. Призрак в доспехах: У истоков / Koukaku Kidoutai Arise: Ghost in the Shell [OVA] [01-02 из 04] (2013-2014) HDRip | LE-Production [HWP]

14 | 10

2.19 ГБ

В этой теме нет новых непрочитанных сообщений. Призрак в доспехах: У истоков / Koukaku Kidoutai Arise: Ghost in the Shell [OVA] [01-03 из 04] (2013-2014) BDRip 720p | LE-Production

64 | 26

6.39 ГБ

В этой теме нет новых непрочитанных сообщений. Призрак в доспехах: У истоков / Koukaku Kidoutai Arise: Ghost in the Shell [OVA] [01-02 из 04] (2013-2014) BDRip 720p | LE-Production

139 | 46

4.23 ГБ

В этой теме нет новых непрочитанных сообщений. Призрак в доспехах: У истоков / Koukaku Kidoutai Arise: Ghost in the Shell [OVA] (2013) BDRip

218 | 14

1.39 ГБ

В этой теме нет новых непрочитанных сообщений. Призрак в доспехах: У истоков / Koukaku Kidoutai Arise: Ghost in the Shell [TV] [01 из 04] (2013) BDRip | AniFilm [HWP]

1 | 5

706.67 МБ

В этой теме нет новых непрочитанных сообщений. Призрак в доспехах: Возникновение / Koukaku Kidoutai Arise: Ghost in the Shell [OVA] [1 из 4] (2013) BDRip | L2

21 | 3

874.13 МБ

В этой теме нет новых непрочитанных сообщений. Призрак в доспехах / Koukaku Kidoutai / Ghost in the Shell (1995) HDRip от KinoRay & Sheikn | D, P2, A, L1

110 | 38

2.29 ГБ




Вы не можете начинать темы
Вы не можете отвечать на сообщения
Вы не можете редактировать свои сообщения
Вы не можете удалять свои сообщения
Вы не можете добавлять вложения

Перейти:  
Для Мосгорсуда, Роскомнадзора и рекламодателей: mosgorsud-torrent[собачка]yandex.ru
 Вход
ppkBB3cker v.2 © 2008-2014 @ PPK
[ Time : 0.043s | 16 Queries | GZIP : Off ]

Торрент трекер RUTOR.IN, Не можете зайти на rutor.org? Какой новый адрес рутор? Какое зеркало рутор? Не работает rutor.org и зеркала? Тогда наш торрент специально для вас. Rutor.in неофициальное зеркало rutor. В случае если у Вас заблокирован rutor или вдруг Вы не можете на него зайти, то Вы без труда сможете скачать бесплатно и без рекламы последние новинки кино, игр, сериалов и прочего у нас, на Rutor.in. Не нужно использовать прокси, чтобы зайти на рутор, достаточно воспользоваться нашим ресурсом. Все новые фильмы, игры, сериалы, книги и музыка за 2013 и 2014 годы через торрент бесплатно. Скачивайте фильмы в хорошем качестве, игры для пк, xbox, playstation без регистрации. У нас вы найдете новые Зарубежные сериалы и Русские сериалы 2013, 2014, 2015 годов. Оставайтесь с нами, качайте любимые фильмы, игры, сериалы, книги и музыку.