img image001 image001 image001 image001 image001 image001 image001 image001 image001 image001 image001 image001 image001 image001 image001

Planets Sun Sun Sun
Статистика раздачи
Автор: Nickolas3434 | Размер: 482.43 МБ | Добавлен: 04 дек 2014
Раздают: 21    Качают: 8
Скачать торрент
Скачать торрент
Описание торрента

СообщениеДобавлено: 04 дек 2014 

Терраформирование ОВА / Terra Formars

Перевод: Любительский (многоголосый) Trina_D, Cuba77, AnsverITO (AniDub)
Субтитры: отсутствуют
Хардсаб: отсутствует
Формат: DVDRip, MP4, H.264, AAC
Страна: Япония
Режиссер: Хамасаки Хироси
Жанр: приключения, фантастика
Продолжительность: OVA (2 эп.), 25 мин.
Год выпуска: 2014
Перевод на русский: Cuba77
Тайминг и работа со звуком: Sergey Sakuragi_R, AnsverITO
Озвучка: Trina_D, Cuba77, AnsverITO

Описание: Марс, 4-я от Солнца планета. С давних пор люди мечтают подчинить себе этот суровый, безжизненный мир. Ученые уже не один десяток лет бьются над планами освоения Марса ради блага человечества. Наконец найден способ превратить Красную планету в цветущий сад, колонию для людей, которым стало тесно на Земле. Проект Терраформации запущен! И вот, спустя сотни лет, группа отчаянных смельчаков отправляется на Марс для завершения проекта. Но кто это? Кто встречает героев на пороге их нового дома? Пришельцы из другой галактики? Или же… Последствия безумного эксперимента?!

Видео: 1024x576р (16:9), 23,976 fps, AVC(x264) Main@L4.1, ~ 682 kbps avg, 0.059 bit/pixel
Аудио: Rus 48,0 KHz, AAC, 2 ch, ~256 Kbps avg

Общее
Полное имя : C:[AniDub]_Terra_Formars_[OVA]_[720p]_[MVO][AniDub]_Terra_Formars_[OVA-1]_[720p]_[MVO].mp4
Формат : MPEG-4
Профиль формата : Base Media
Идентификатор кодека : isom
Размер файла : 160 Мбайт
Продолжительность : 23 м.
Режим общего битрейта : Переменный
Общий поток : 941 Кбит/сек
Дата кодирования : UTC 2014-08-29 20:36:47
Дата пометки : UTC 2014-08-29 20:36:47
Программа кодирования : Yamb 2.1.0.0 [http://yamb.unite-video.com]

Видео
Идентификатор : 1
Формат : AVC
Формат/Информация : Advanced Video Codec
Профиль формата : Main@L4.1
Параметр CABAC формата : Да
Параметр ReFrames формата : 4 кадра
Идентификатор кодека : avc1
Идентификатор кодека/Информация : Advanced Video Coding
Продолжительность : 23 м.
Битрейт : 682 Кбит/сек
Максимальный битрейт : 14,0 Мбит/сек
Ширина : 1024 пикселя
Высота : 576 пикселей
Соотношение сторон : 16:9
Режим частоты кадров : Постоянный
Частота кадров : 23,976 кадра/сек
Цветовое пространство : YUV
Субдискретизация насыщенности : 4:2:0
Битовая глубина : 8 бит
Тип развёртки : Прогрессивная
Бит/(Пиксели*Кадры) : 0.048
Размер потока : 116 Мбайт (72%)
Библиотека кодирования : x264 core 142 r2453 ea0ca51
Настройки программы : cabac=1 / ref=3 / deblock=1:0:0 / analyse=0x1:0x111 / me=hex / subme=7 / psy=1 / psy_rd=1.00:0.00 / mixed_ref=1 / me_range=16 / chroma_me=1 / trellis=1 / 8x8dct=0 / cqm=0 / deadzone=21,11 / fast_pskip=1 / chroma_qp_offset=-2 / threads=8 / lookahead_threads=1 / sliced_threads=0 / nr=0 / decimate=1 / interlaced=0 / bluray_compat=0 / constrained_intra=0 / bframes=16 / b_pyramid=2 / b_adapt=1 / b_bias=0 / direct=1 / weightb=1 / open_gop=0 / weightp=2 / keyint=240 / keyint_min=1 / scenecut=40 / intra_refresh=0 / rc_lookahead=40 / rc=crf / mbtree=1 / crf=23.0 / qcomp=0.60 / qpmin=0 / qpmax=69 / qpstep=4 / ip_ratio=1.40 / aq=1:1.00
Дата кодирования : UTC 2014-08-21 10:14:07
Дата пометки : UTC 2014-08-29 20:37:09

Аудио
Идентификатор : 2
Формат : AAC
Формат/Информация : Advanced Audio Codec
Профиль формата : LC
Идентификатор кодека : 40
Продолжительность : 23 м.
Вид битрейта : Переменный
Битрейт : 256 Кбит/сек
Максимальный битрейт : 262 Кбит/сек
Каналы : 2 канала
Расположение каналов : Front: L R
Частота : 48,0 КГц
Метод сжатия : С потерями
Размер потока : 43,5 Мбайт (27%)
Язык : Russian
Дата кодирования : UTC 2014-08-29 20:37:08
Дата пометки : UTC 2014-08-29 20:37:09







   Похожие торренты   Торрент   Размер 
В этой теме нет новых непрочитанных сообщений. Терраформирование / Terra Formars / Terraformars [TV] [01-03 из 13] (2014) HDTVRip | P2

52 | 58

2.69 ГБ

В этой теме нет новых непрочитанных сообщений. Терраформирование / Terra Formars / Terraformars [TV] [01-03 из 13] (2014) HDTVRip | P2

18 | 13

1.25 ГБ

В этой теме нет новых непрочитанных сообщений. Терраформирование / Terra Formars / Terraformars [TV] [01-03 из 13] (2014) HDTVRip | P2

48 | 43

1.72 ГБ

В этой теме нет новых непрочитанных сообщений. Терраформирование / Terra Formars / Terraformars [TV] [01 из 13] (2014) HDTVRip | L2

29 | 12

573.37 МБ

В этой теме нет новых непрочитанных сообщений. Терраформирование / Terra Formars / Terraformars [TV] [01 из 13] (2014) HDTVRip | L2

28 | 13

906.11 МБ

В этой теме нет новых непрочитанных сообщений. Терраформирование / Terra Formars / Terraformars [TV] [01-03 из 13] (2014) HDTVRip | P2

11 | 7

2.21 ГБ

В этой теме нет новых непрочитанных сообщений. Терраформирование / Terra Formars / Terraformars [TV] [01 из 13] (2014) HDTVRip | P2

2 | 60

245.93 МБ




Вы не можете начинать темы
Вы не можете отвечать на сообщения
Вы не можете редактировать свои сообщения
Вы не можете удалять свои сообщения
Вы не можете добавлять вложения

Перейти:  
Для Мосгорсуда, Роскомнадзора и рекламодателей: mosgorsud-torrent[собачка]yandex.ru
 Вход
ppkBB3cker v.2 © 2008-2014 @ PPK
[ Time : 1.536s | 16 Queries | GZIP : Off ]

Торрент трекер RUTOR.IN, Не можете зайти на rutor.org? Какой новый адрес рутор? Какое зеркало рутор? Не работает rutor.org и зеркала? Тогда наш торрент специально для вас. Rutor.in неофициальное зеркало rutor. В случае если у Вас заблокирован rutor или вдруг Вы не можете на него зайти, то Вы без труда сможете скачать бесплатно и без рекламы последние новинки кино, игр, сериалов и прочего у нас, на Rutor.in. Не нужно использовать прокси, чтобы зайти на рутор, достаточно воспользоваться нашим ресурсом. Все новые фильмы, игры, сериалы, книги и музыка за 2013 и 2014 годы через торрент бесплатно. Скачивайте фильмы в хорошем качестве, игры для пк, xbox, playstation без регистрации. У нас вы найдете новые Зарубежные сериалы и Русские сериалы 2013, 2014, 2015 годов. Оставайтесь с нами, качайте любимые фильмы, игры, сериалы, книги и музыку.