img image001 image001 image001 image001 image001 image001 image001 image001 image001 image001 image001 image001 image001 image001 image001

Planets Sun Sun Sun
Статистика раздачи
Автор: Nickolas3434 | Размер: 3.39 ГБ | Добавлен: 07 дек 2014
Раздают: 5    Качают: 19
Скачать торрент
Скачать торрент
Описание торрента

СообщениеДобавлено: 07 дек 2014 

Информация о фильме
Название: Прекрасный воин Сейлор Мун. Кристалл
Оригинальное название: Bishoujo Senshi Sailor Moon Crystal / 美少女戦士セーラームーン Crystal
Страна: Япония
Год выхода: 2014
Жанр: приключения, махо-сёдзё
Режиссер: Сакай Мунэхиса / Sakai Munehisa / 境宗久
Автор оригинала: Такэути Наоко / Takeuchi Naoko / 武内直子
О фильме: Усаги Цукино учится во втором классе средней школы, она далеко не самая умная, немного неуклюжая и вообще плакса, но энергии ей не занимать. В один прекрасный день Усаги встречает Луну, черную кошку с полумесяцем на лбу, после чего получает способность превращаться в Сейлор Мун – прекрасную воительницу в матроске, несущую возмездие во имя Луны (любви и справедливости). Теперь Усаги должна вместе с другими воительницами искать Иллюзорный Серебряный Кристалл, а заодно защищать принцессу. Тем временем Королева Берил, повелительница Тёмного Королевства, отправляет своих прислужников в город, где живет Усаги, дабы присвоить этот самый Кристалл, являющийся источником огромной силы.
Ремейк оригинального сериала в честь двадцатилетия марки.

Студия:
Продолжительность: ONA (26 эп.), 25 мин.
Перевод: Любительский (двухголосый)
Озвучка: loster01 & Emeri
Субтитры: отсутствуют
Полухардсаб: есть (логотип группы)
Файл
Качество: BDRip 720p
Формат: MKV
Видео: 1280 x 720 (16:9) at 23.976 fps, AVC (x264), High@L3.1, 3966 Kbps avg, 0.179 bit/pixel, 8 bit
Аудио #1 RUS - 48 kHz, AC3, 2 ch, ~384 kbps avg
Аудио #2 JAP - 48 kHz, AC3, 2 ch, ~384 kbps avg
Релиз от: | BDRip: loster01 | Перевод на русский: Emeri
Общее
Полное имя : [LE-Production]_Sailor_Moon_Crystal_[BDRip]_[rus]_[1280x720_x264]_[loster01_&_Emeri][LE-Production]_Sailor_Moon_Crystal_[BDRip]_[01]_[rus_jap]_[1280x720_x264]_[loster01_&_Emeri].mkv
Формат : Matroska
Размер файла : 851 Мбайт
Продолжительность : 24 м.
Общий поток : 4830 Кбит/сек
Название фильма : LE-Production
Дата кодирования : UTC 2014-10-18 16:39:31
Программа кодирования : mkvmerge v7.1.0 ('Good Love') 64bit built on Jul 27 2014 13:06:55
Библиотека кодирования : libebml v1.3.0 + libmatroska v1.4.1
Видео
Идентификатор : 1
Формат : AVC
Формат/Информация : Advanced Video Codec
Профиль формата : High@L3.1
Параметр CABAC формата : Да
Параметр ReFrames формата : 4 кадры
Идентификатор кодека : V_MPEG4/ISO/AVC
Продолжительность : 24 м.
Битрейт : 3966 Кбит/сек
Номинальный битрейт : 4962 Кбит/сек
Ширина : 1280 пикс.
Высота : 720 пикс.
Соотношение сторон : 16:9
Частота кадров : 23,976 кадр/сек
Цветовое пространство : YUV
Подвыборка цветности : 4:2:0
Битовая глубина : 8 бит
Тип развёртки : Прогрессивная
Бит/(Пиксели*Кадры) : 0.179
Размер потока : 699 Мбайт (82%)
Заголовок : LE-Production
Библиотека кодирования : x264 core 130 r2273 b3065e6
Настройки программы : cabac=1 / ref=1 / deblock=1:-1:-1 / analyse=0x3:0x3 / me=dia / subme=1 / psy=1 / psy_rd=1.00:0.10 / mixed_ref=0 / me_range=16 / chroma_me=1 / trellis=0 / 8x8dct=1 / cqm=0 / deadzone=21,11 / fast_pskip=1 / chroma_qp_offset=0 / threads=12 / lookahead_threads=2 / sliced_threads=0 / nr=0 / decimate=1 / interlaced=0 / bluray_compat=0 / constrained_intra=0 / bframes=3 / b_pyramid=2 / b_adapt=1 / b_bias=0 / direct=3 / weightb=1 / open_gop=0 / weightp=1 / keyint=250 / keyint_min=23 / scenecut=40 / intra_refresh=0 / rc=2pass / mbtree=0 / bitrate=4962 / ratetol=1.0 / qcomp=0.60 / qpmin=0 / qpmax=69 / qpstep=4 / cplxblur=20.0 / qblur=0.5 / ip_ratio=1.40 / pb_ratio=1.30 / aq=1:1.00
Язык : Russian
Аудио #1
Идентификатор : 2
Формат : AC-3
Формат/Информация : Audio Coding 3
Расширение режима : CM (complete main)
Идентификатор кодека : A_AC3
Продолжительность : 24 м.
Вид битрейта : Постоянный
Битрейт : 384 Кбит/сек
Канал(ы) : 2 канала(ов)
Расположение каналов : Front: L R
Частота : 48,0 КГц
Битовая глубина : 16 бит
Метод сжатия : С потерями
Размер потока : 67,7 Мбайт (8%)
Заголовок : LE-Production (loster01 &Emeri)
Язык : Russian
Аудио #2
Идентификатор : 3
Формат : AC-3
Формат/Информация : Audio Coding 3
Расширение режима : CM (complete main)
Идентификатор кодека : A_AC3
Продолжительность : 24 м.
Вид битрейта : Постоянный
Битрейт : 384 Кбит/сек
Канал(ы) : 2 канала(ов)
Расположение каналов : Front: L R
Частота : 48,0 КГц
Битовая глубина : 16 бит
Метод сжатия : С потерями
Размер потока : 67,7 Мбайт (8%)
Язык : Japanese
Акт 1. Усаги превращается в Сейлор Мун.
Акт 2. Ами - Сейлор Меркурий.
Акт 3. Рей - Сейлор Марс.
Акт 4. Бал-маскарад.
Акт 5. Макото - Сейлор Юпитер.
Акт 6. Таксидо Камэн.
Акт 7. Мамору Тиба - Таксидо Камэн.
Акт 8. Минако - Сейлор V.
Акт 9. Принцесса Серенити.
Акт 10. Луна.
Акт 11. Воссоединение. Эндимион.






   Похожие торренты   Торрент   Размер 
В этой теме нет новых непрочитанных сообщений. Прекрасный воин Сейлор Мун. Кристалл / Bishoujo Senshi Sailor Moon Crystal [ONA] [01-02 из 26] (2014) WEBRip 720p | LE-Production

24 | 8

868.91 МБ

В этой теме нет новых непрочитанных сообщений. Прекрасный воин Сейлор Мун. Кристалл / Bishoujo Senshi Sailor Moon Crystal [ONA] [01-05 из 26] (2014) WEBRip 720p | LE-Production

25 | 12

2.19 ГБ

В этой теме нет новых непрочитанных сообщений. Прекрасный воин Сейлор Мун. Кристалл / Bishoujo Senshi Sailor Moon Crystal [ONA] [01-06 из 26] (2014) WEBRip 720p | LE-Production

38 | 25

2.58 ГБ

В этой теме нет новых непрочитанных сообщений. Прекрасный воин Сейлор Мун. Кристалл / Bishoujo Senshi Sailor Moon Crystal [ONA] [01-11 из 26] (2014) WEBRip 720p | LE-Production

25 | 13

4.83 ГБ

В этой теме нет новых непрочитанных сообщений. Прекрасный воин Сейлор Мун. Кристалл / Bishoujo Senshi Sailor Moon Crystal [ONA] [01 из 26] (2014) WEBRip 720p | LE-Production

37 | 5

431.77 МБ

В этой теме нет новых непрочитанных сообщений. Прекрасный воин Сейлор Мун. Кристалл / Bishoujo Senshi Sailor Moon Crystal [ONA] [01-16 из 26] (2014) WEBRip 720p | LE-Production

13 | 5

7.51 ГБ

В этой теме нет новых непрочитанных сообщений. Прекрасный воин Сейлор Мун. Кристалл / Bishoujo Senshi Sailor Moon Crystal [ONA] [01-03 из 26] (2014) WEBRip 720p | LE-Production

49 | 20

1.29 ГБ




Вы не можете начинать темы
Вы не можете отвечать на сообщения
Вы не можете редактировать свои сообщения
Вы не можете удалять свои сообщения
Вы не можете добавлять вложения

Перейти:  
Для Мосгорсуда, Роскомнадзора и рекламодателей: mosgorsud-torrent[собачка]yandex.ru
 Вход
ppkBB3cker v.2 © 2008-2014 @ PPK
[ Time : 0.057s | 15 Queries | GZIP : Off ]

Торрент трекер RUTOR.IN, Не можете зайти на rutor.org? Какой новый адрес рутор? Какое зеркало рутор? Не работает rutor.org и зеркала? Тогда наш торрент специально для вас. Rutor.in неофициальное зеркало rutor. В случае если у Вас заблокирован rutor или вдруг Вы не можете на него зайти, то Вы без труда сможете скачать бесплатно и без рекламы последние новинки кино, игр, сериалов и прочего у нас, на Rutor.in. Не нужно использовать прокси, чтобы зайти на рутор, достаточно воспользоваться нашим ресурсом. Все новые фильмы, игры, сериалы, книги и музыка за 2013 и 2014 годы через торрент бесплатно. Скачивайте фильмы в хорошем качестве, игры для пк, xbox, playstation без регистрации. У нас вы найдете новые Зарубежные сериалы и Русские сериалы 2013, 2014, 2015 годов. Оставайтесь с нами, качайте любимые фильмы, игры, сериалы, книги и музыку.