img image001 image001 image001 image001 image001 image001 image001 image001 image001 image001 image001 image001 image001 image001 image001

Planets Sun Sun Sun
Статистика раздачи
Автор: Nickolas3434 | Размер: 5.76 ГБ | Добавлен: 11 дек 2014
Раздают: 197    Качают: 9
Скачать торрент
Скачать торрент
Описание торрента

СообщениеДобавлено: 11 дек 2014 


#77
Информация о фильме
    Русское название: Берсерк. Золотой век: Фильм III. Сошествие
    Оригинальное название: Beruseruku: Ougon jidai-hen III - Kourin / Berserk: The Golden Age Arc III - Descent
    Год выхода: 2013
    Жанр: аниме, мультфильм, фэнтези, приключения
    Режиссер: Тосиюки Кубоока, Майкл Синтерниклаас
    Выпущено: Япония
    Продолжительность: 01:48:10
    Перевод: Дублированный
    В ролях: Джон Эвнер, Джейби Бланк, Джемисон Боаз, Гилберт Боус, Дэвид Бриммер, Кевин Коллинз, Марк Дирайсон, Даг Эрхольц, Такахиро Фудзивара, Барбара Гудсон


Сюжет фильма
    Ни возвращение Гатса в отряд Соколов, ни освобождение Гриффитса не приносят облегчения: истерзанный пытками Гриффитс теперь — лишь тень прежнего себя, а члены отряда, когда-то переживавшие вместе труднейшие времена, теперь готовы пойти разными дорогами… Однако дух иногда сломить гораздо трудней, чем плоть: мечты и стремления великого некогда человека приобретают, преломляясь сквозь возможности самых сильных мира сего, черные крылья ужаса и боли. Грядет Затмение, и вместе с ним приближается самая главная битва.


Файл
    Качество: BDRip 1080p (исходник Blu-ray Disc)
    Видео: 1920x816, 6732 Кбит/сек, 23,976 кадр/сек, AVC, x264, High@L4.1, 2.35:1, 0.179 Бит/[Пиксели*Кадры]
    Аудио 1: AC-3, 448 Кбит/сек, 6 канала(ов), 48,0 КГц - Дублированный / Русский
    Аудио 2: AC-3, 448 Кбит/сек, 6 канала(ов), 48,0 КГц - Оригинал / Японский
    Субтитры: Русские | Полные
    Форсированные субтитры: Нет
    Чаптеры (Главы): Есть




Сэмпл
Автор Рипа: Сообщество:



Format : Matroska
Format version : Version 2
File size : 5.76 GiB
Duration : 1h 48mn
Overall bit rate : 7 620 Kbps
Movie name : Берсерк.Золотой век: Фильм III.Сошествие.(2013).BDRip.1080p.[envy]
Encoded date : UTC 2014-12-11 08:02:20
Writing application : mkvmerge v5.8.0 ('No Sleep / Pillow') built on Sep 2 2012 15:37:04
Writing library : libebml v1.2.3 + libmatroska v1.3.0

Video
ID : 1
Format : AVC
Format/Info : Advanced Video Codec
Format profile : High@L4.1
Format settings, CABAC : Yes
Format settings, ReFrames : 5 frames
Codec ID : V_MPEG4/ISO/AVC
Duration : 1h 48mn
Bit rate : 6 732 Kbps
Width : 1 920 pixels
Height : 816 pixels
Display aspect ratio : 2.35:1
Frame rate mode : Constant
Frame rate : 23.976 fps
Color space : YUV
Chroma subsampling : 4:2:0
Bit depth : 8 bits
Scan type : Progressive
Bits/(Pixel*Frame) : 0.179
Stream size : 4.97 GiB (86%)
Title : Берсерк.Золотой век: Фильм III.Сошествие.(2013).BDRip.1080p.[envy]
Writing library : x264 core 142 r2491 24e4fed
Encoding settings : cabac=1 / ref=5 / deblock=1:0:0 / analyse=0x3:0x113 / me=umh / subme=11 / psy=1 / psy_rd=1.00:0.00 / mixed_ref=1 / me_range=48 / chroma_me=1 / trellis=2 / 8x8dct=1 / cqm=0 / deadzone=21,11 / fast_pskip=0 / chroma_qp_offset=-2 / threads=12 / lookahead_threads=1 / sliced_threads=0 / nr=0 / decimate=1 / interlaced=0 / bluray_compat=0 / constrained_intra=0 / bframes=6 / b_pyramid=2 / b_adapt=2 / b_bias=0 / direct=3 / weightb=1 / open_gop=0 / weightp=2 / keyint=240 / keyint_min=23 / scenecut=40 / intra_refresh=0 / rc=2pass / mbtree=0 / bitrate=6732 / ratetol=2.0 / qcomp=0.60 / qpmin=0 / qpmax=69 / qpstep=4 / cplxblur=20.0 / qblur=0.5 / ip_ratio=1.40 / pb_ratio=1.30 / aq=2:0.90
Language : Japanese
Default : Yes
Forced : No

Audio #1
ID : 2
Format : AC-3
Format/Info : Audio Coding 3
Mode extension : CM (complete main)
Format settings, Endianness : Big
Codec ID : A_AC3
Duration : 1h 48mn
Bit rate mode : Constant
Bit rate : 448 Kbps
Channel(s) : 6 channels
Channel positions : Front: L C R, Side: L R, LFE
Sampling rate : 48.0 KHz
Bit depth : 16 bits
Compression mode : Lossy
Stream size : 347 MiB (6%)
Title : Dub
Language : Russian
Default : Yes
Forced : No

Audio #2
ID : 3
Format : AC-3
Format/Info : Audio Coding 3
Mode extension : CM (complete main)
Format settings, Endianness : Big
Codec ID : A_AC3
Duration : 1h 48mn
Bit rate mode : Constant
Bit rate : 448 Kbps
Channel(s) : 6 channels
Channel positions : Front: L C R, Side: L R, LFE
Sampling rate : 48.0 KHz
Bit depth : 16 bits
Compression mode : Lossy
Stream size : 347 MiB (6%)
Title : Jpn
Language : Japanese
Default : No
Forced : No

Text
ID : 4
Format : UTF-8
Codec ID : S_TEXT/UTF8
Codec ID/Info : UTF-8 Plain Text
Title : full
Language : Russian
Default : No
Forced : No

Menu
00:00:00.000 : :Chapter 01
00:07:09.512 : :Chapter 02
00:12:22.408 : :Chapter 03
00:23:52.931 : :Chapter 04
00:35:12.235 : :Chapter 05
00:49:37.224 : :Chapter 06
01:07:02.643 : :Chapter 07
01:30:17.829 : :Chapter 08
01:42:14.169 : :Chapter 09
01:46:47.442 : :Chapter 10
01:47:50.714 : :Chapter 11
01:48:09.316 : :Chapter 12



#77



   Похожие торренты   Торрент   Размер 
В этой теме нет новых непрочитанных сообщений. Берсерк. Золотой век: Фильм III. Сошествие / Berserk Ogon Jidai-Hen III: Korin (2013) BDRip 1080p от UA MAX | D | HD+HWP

94 | 47

3.32 ГБ

В этой теме нет новых непрочитанных сообщений. Берсерк. Золотой век: Фильм III. Сошествие / Berserk Ogon Jidai-Hen III: Korin (2013) BDRip 720p от UA MAX | L2 | Director's Cut

102 | 17

1.3 ГБ

В этой теме нет новых непрочитанных сообщений. Берсерк: Золотой век (фильм) / Berserk: Golden Age Arc [movie] [1-3+1 из 3+1] (2012 - 2013) BDRip [HWP] от UA MAX |D, L2

186 | 18

4.41 ГБ

В этой теме нет новых непрочитанных сообщений. Берсерк: Золотой век (фильм) / Berserk: Golden Age Arc [movie] [1-3+1 из 3+1] (2012 - 2013) BDRip [Hi10P] от UA MAX |D, L2

80 | 23

8.18 ГБ

В этой теме нет новых непрочитанных сообщений. Берсерк. Золотой век: Фильм I. Бехерит Властителя / Berserk Ogon Jidai-hen I: Hao no Tamago (2012) BDRip 1080p от Freeisland

80 | 23

4.37 ГБ

В этой теме нет новых непрочитанных сообщений. Берсерк: Золотой век. Фильм 2: Битва за Долдрей / Berserk Ogon Jidai-hen II: Doldrey Koryaku (2012) BDRip 1080p от Freeisland

73 | 7

5.76 ГБ

В этой теме нет новых непрочитанных сообщений. Берсерк: Золотой век. Фильм II. Битва за Долдрей / Berserk Ogon J (2012) BDRip 1080p от Killbrain and Scarabey | Лицензия | Русский видеоряд

178 | 24

3.95 ГБ




Вы не можете начинать темы
Вы не можете отвечать на сообщения
Вы не можете редактировать свои сообщения
Вы не можете удалять свои сообщения
Вы не можете добавлять вложения

Перейти:  
Для Мосгорсуда, Роскомнадзора и рекламодателей: mosgorsud-torrent[собачка]yandex.ru
 Вход
ppkBB3cker v.2 © 2008-2014 @ PPK
[ Time : 0.060s | 16 Queries | GZIP : Off ]

cron