img image001 image001 image001 image001 image001 image001 image001 image001 image001 image001 image001 image001 image001 image001 image001

Planets Sun Sun Sun
Статистика раздачи
Автор: Nickolas3434 | Размер: 4.57 ГБ | Добавлен: 12 дек 2014
Раздают: 17    Качают: 25
Скачать торрент
Скачать торрент
Описание торрента

СообщениеДобавлено: 12 дек 2014 

Информация о фильме
Название: Терраформирование
Оригинальное название: Terra Formars / Terraformars / テラフォーマーズ
Страна: Япония
Год выхода: 2014
Жанр: приключения, фантастика
Режиссер: Хамасаки Хироси / Hamasaki Hiroshi / 浜崎博嗣
Автор оригинала: Сасуга Ю / Sasuga Yuu / 貴家悠
Снято по манге: Terra Formars

О фильме: Марс, 4-я от Солнца планета. С давних пор люди мечтают подчинить себе этот суровый, безжизненный мир. Ученые уже не один десяток лет бьются над планами освоения Марса ради блага человечества. Наконец найден способ превратить Красную планету в цветущий сад, колонию для людей, которым стало тесно на Земле. Проект Терраформации запущен! И вот, спустя сотни лет, группа отчаянных смельчаков отправляется на Марс для завершения проекта. Но кто это? Кто встречает героев на пороге их нового дома? Пришельцы из другой галактики? Или же… Последствия безумного эксперимента?!

Студия:

Продолжительность: ТВ (13 эп.), 25 мин.
Перевод: Профессиональный (двухголосый закадровый)
Субтитры: отсутствуют
Полухардсаб: есть (надписи, логотип)
Озвучено: студия "Окей"
Текст читают: Тимиркан Сиюхов & Маргарита Щелкунова

Файл
Качество: HDTVRip (Leopard-Raws)
Формат: MP4
Видео: 1280 x 720 (16:9) at 23.976 fps, AVC (x264), High@L3.0, 1163 Kbps avg, 0.053 bit/pixel
Аудио: RUS - 48.0 kHz, AAC, 2 ch, 256 kbps avg

Перевод на русский: перевод: Anku; редактор: mutagenb

Релиз от: Ani-mania

Общее
Полное имя : [Ani-Mania]_Terra_Formars_[rus]_[1280x720_x264]_[loster01_&_Emeri][Ani-Mania]_Terra_Formars_[01]_[rus]_[1280x720_x264]_[loster01_&_Emeri].mp4
Формат : MPEG-4
Профиль формата : Base Media
Идентификатор кодека : isom
Размер файла : 246 Мбайт
Продолжительность : 24 м.
Общий поток : 1423 Кбит/сек
Дата кодирования : UTC 2014-09-28 19:32:25
Дата пометки : UTC 2014-09-28 19:32:25
Программа кодирования : Yamb 2.1.0.0 [http://yamb.unite-video.com]

Видео
Идентификатор : 1
Формат : AVC
Формат/Информация : Advanced Video Codec
Профиль формата : High@L3.0
Параметр CABAC формата : Да
Параметр ReFrames формата : 4 кадры
Идентификатор кодека : avc1
Идентификатор кодека/Информация : Advanced Video Coding
Продолжительность : 24 м.
Вид битрейта : Переменный
Битрейт : 1163 Кбит/сек
Максимальный битрейт : 6732 Кбит/сек
Ширина : 1280 пикс.
Высота : 720 пикс.
Соотношение сторон : 16:9
Режим частоты кадров : Постоянный
Частота кадров : 23,976 кадр/сек
Цветовое пространство : YUV
Подвыборка цветности : 4:2:0
Битовая глубина : 8 бит
Тип развёртки : Прогрессивная
Бит/(Пиксели*Кадры) : 0.053
Размер потока : 201 Мбайт (82%)
Библиотека кодирования : x264 core 130 r2273 b3065e6
Настройки программы : cabac=1 / ref=1 / deblock=1:0:0 / analyse=0x3:0x3 / me=dia / subme=1 / psy=1 / psy_rd=1.00:0.00 / mixed_ref=0 / me_range=16 / chroma_me=1 / trellis=0 / 8x8dct=1 / cqm=0 / deadzone=21,11 / fast_pskip=1 / chroma_qp_offset=0 / threads=12 / lookahead_threads=2 / sliced_threads=0 / nr=0 / decimate=1 / interlaced=0 / bluray_compat=0 / constrained_intra=0 / bframes=3 / b_pyramid=2 / b_adapt=1 / b_bias=0 / direct=1 / weightb=1 / open_gop=0 / weightp=1 / keyint=250 / keyint_min=23 / scenecut=40 / intra_refresh=0 / rc=crf / mbtree=0 / crf=21.0 / qcomp=0.60 / qpmin=0 / qpmax=69 / qpstep=4 / ip_ratio=1.40 / pb_ratio=1.30 / aq=1:1.00
Язык : Russian
Дата кодирования : UTC 2014-09-28 19:32:25
Дата пометки : UTC 2014-09-28 19:32:30

Аудио
Идентификатор : 2
Формат : AAC
Формат/Информация : Advanced Audio Codec
Профиль формата : LC
Идентификатор кодека : 40
Продолжительность : 24 м.
Вид битрейта : Переменный
Битрейт : 256 Кбит/сек
Максимальный битрейт : 263 Кбит/сек
Канал(ы) : 2 канала(ов)
Расположение каналов : Front: L R
Частота : 48,0 КГц
Метод сжатия : С потерями
Размер потока : 44,3 Мбайт (18%)
Язык : Russian
Дата кодирования : UTC 2014-09-28 19:32:29
Дата пометки : UTC 2014-09-28 19:32:30

01. Признак: модификация.
02. Отправка: начало.
03. На Марс: планету бедствий.
04. Война: тотальная война.
05. Двое исключительных: дети чуда.
06. Две минуты: в течение 2 минут.
07. Краб: свирепый воин.
08. Электрический угорь: электрический организм.
09. Слишком печален, чтобы умереть: капля дождя.
10. Желание: стремление...
11. Cила: Боксёр.






   Похожие торренты   Торрент   Размер 
В этой теме нет новых непрочитанных сообщений. Терраформирование / Terra Formars [TV] [01-10 из 13] (2014) HDTVRip | P2

26 | 19

4.11 ГБ

В этой теме нет новых непрочитанных сообщений. Терраформирование / Terra Formars [TV] [01-08 из 13] (2014) HDTVRip | P2

17 | 7

3.11 ГБ

В этой теме нет новых непрочитанных сообщений. Терраформирование / Terra Formars / Terraformars [TV] [01 из 13] (2014) HDTVRip | L2

28 | 13

906.11 МБ

В этой теме нет новых непрочитанных сообщений. Терраформирование / Terra Formars / Terraformars [TV] [01-03 из 13] (2014) HDTVRip | P2

52 | 58

2.69 ГБ

В этой теме нет новых непрочитанных сообщений. Терраформирование / Terra Formars / Terraformars [TV] [01 из 13] (2014) HDTVRip | L2

29 | 12

573.37 МБ

В этой теме нет новых непрочитанных сообщений. Терраформирование / Terra Formars / Terraformars [TV] [01-03 из 13] (2014) HDTVRip | P2

48 | 43

1.72 ГБ

В этой теме нет новых непрочитанных сообщений. Терраформирование / Terra Formars / Terraformars [TV] [01 из 13] (2014) HDTVRip | P2

2 | 60

245.93 МБ




Вы не можете начинать темы
Вы не можете отвечать на сообщения
Вы не можете редактировать свои сообщения
Вы не можете удалять свои сообщения
Вы не можете добавлять вложения

Перейти:  
Для Мосгорсуда, Роскомнадзора и рекламодателей: mosgorsud-torrent[собачка]yandex.ru
 Вход
ppkBB3cker v.2 © 2008-2014 @ PPK
[ Time : 0.032s | 17 Queries | GZIP : Off ]

Торрент трекер RUTOR.IN, Не можете зайти на rutor.org? Какой новый адрес рутор? Какое зеркало рутор? Не работает rutor.org и зеркала? Тогда наш торрент специально для вас. Rutor.in неофициальное зеркало rutor. В случае если у Вас заблокирован rutor или вдруг Вы не можете на него зайти, то Вы без труда сможете скачать бесплатно и без рекламы последние новинки кино, игр, сериалов и прочего у нас, на Rutor.in. Не нужно использовать прокси, чтобы зайти на рутор, достаточно воспользоваться нашим ресурсом. Все новые фильмы, игры, сериалы, книги и музыка за 2013 и 2014 годы через торрент бесплатно. Скачивайте фильмы в хорошем качестве, игры для пк, xbox, playstation без регистрации. У нас вы найдете новые Зарубежные сериалы и Русские сериалы 2013, 2014, 2015 годов. Оставайтесь с нами, качайте любимые фильмы, игры, сериалы, книги и музыку.