img image001 image001 image001 image001 image001 image001 image001 image001 image001 image001 image001 image001 image001 image001 image001

Planets Sun Sun Sun
Статистика раздачи
Автор: Nickolas3434 | Размер: 1.58 ГБ | Добавлен: 14 дек 2014
Раздают: 48    Качают: 10
Скачать торрент
Скачать торрент
Описание торрента

СообщениеДобавлено: 14 дек 2014 

Информация о фильме
Название: Люпен Третий: Могила Дзигэна Дайскэ
Оригинальное название: Lupin the IIIrd: Jigen Daisuke no Bohyou / Lupin the IIIrd 次元大介の墓標
Страна: Япония
Год выхода: 2014
Жанр: приключения
Режиссер: Койкэ Такэси / Koike Takeshi / 小池健
Автор оригинала: Манки Панч / Monkey Punch / モンキー・パンチ

О фильме: Приключения друзей Арсена Люпена и Дзигэна, а также обаятельной чертовки Минэ Фудзико заносят их в небольшое государство Дороа, в котором они собираются похитить необычайно дорогой бриллиант, по слухам являющийся осколком упавшего метеорита. Как всегда, всё сбивается с первоначального плана и летит наперекосяк: друзья оказываются втянуты в конфликт между западным и восточным Дороа, убегают от киллера, нанятого убить Дзигэна, а потом Арсена Люпена и Минэ Фудзико в придачу. Пытаясь спасти свои шкуры и параллельно обдурить всех и вся, троица раскрывает серию убийств, которая и послужила конфликтом между частями государства, избавляется от матёрого киллера и спокойно покидает город, отправляясь на поиски новых сокровищ, злодеев, девушек и приключений, оставив после себя лишь три надгробия...

Студия:

Продолжительность: короткометражный фильм, 2 x ~26 мин.
Перевод: Профессиональный (одноголосый)
Субтитры: отсутствуют
Полухардсаб: есть (надписи, логотип)
Озвучено: Тимиркан Сиюхов
Перевод на русский: Semyon44

Файл
Качество: BDRip (LE-Production)
Формат: MKV
Видео: 1280 x 720 (16:9) at 23.976 fps, AVC (x264), High@L3.1, 3989 Kbps avg, 0.181 bit/pixel, 8 bit
Аудио: RUS - 48.0 kHz, AC3, 2 ch, 192 kbps avg

Общее
Полное имя : [LE-Production]_Lupin_III_2014_Jigen_Daisuke_no_Bohyou_[BDRip]_[rus]_[1280x720_x264][LE-Production]_Lupin_III_Jigen_Daisuke_no_Bohyou_[02]_[BDRip]_[rus]_[1280x720_x264].mkv
Формат : Matroska
Размер файла : 803 Мбайт
Продолжительность : 26 м.
Общий поток : 4266 Кбит/сек
Название фильма : LE-Production
Дата кодирования : UTC 2014-12-11 12:10:08
Программа кодирования : mkvmerge v7.3.0 ('Nouages') 64bit built on Oct 22 2014 18:53:34
Библиотека кодирования : libebml v1.3.0 + libmatroska v1.4.1

Видео
Идентификатор : 1
Формат : AVC
Формат/Информация : Advanced Video Codec
Профиль формата : High@L3.1
Параметр CABAC формата : Да
Параметр ReFrames формата : 4 кадры
Идентификатор кодека : V_MPEG4/ISO/AVC
Продолжительность : 26 м.
Битрейт : 3989 Кбит/сек
Номинальный битрейт : 4962 Кбит/сек
Ширина : 1280 пикс.
Высота : 720 пикс.
Соотношение сторон : 16:9
Частота кадров : 23,976 кадр/сек
Цветовое пространство : YUV
Подвыборка цветности : 4:2:0
Битовая глубина : 8 бит
Тип развёртки : Прогрессивная
Бит/(Пиксели*Кадры) : 0.181
Размер потока : 751 Мбайт (94%)
Заголовок : LE-Production
Библиотека кодирования : x264 core 130 r2273 b3065e6
Настройки программы : cabac=1 / ref=1 / deblock=1:-1:-1 / analyse=0x3:0x3 / me=dia / subme=1 / psy=1 / psy_rd=1.00:0.10 / mixed_ref=0 / me_range=16 / chroma_me=1 / trellis=0 / 8x8dct=1 / cqm=0 / deadzone=21,11 / fast_pskip=1 / chroma_qp_offset=0 / threads=12 / lookahead_threads=2 / sliced_threads=0 / nr=0 / decimate=1 / interlaced=0 / bluray_compat=0 / constrained_intra=0 / bframes=3 / b_pyramid=2 / b_adapt=1 / b_bias=0 / direct=3 / weightb=1 / open_gop=0 / weightp=1 / keyint=250 / keyint_min=23 / scenecut=40 / intra_refresh=0 / rc=2pass / mbtree=0 / bitrate=4962 / ratetol=1.0 / qcomp=0.60 / qpmin=0 / qpmax=69 / qpstep=4 / cplxblur=20.0 / qblur=0.5 / ip_ratio=1.40 / pb_ratio=1.30 / aq=1:1.00
Язык : Japanese

Аудио
Идентификатор : 2
Формат : AC-3
Формат/Информация : Audio Coding 3
Расширение режима : CM (complete main)
Идентификатор кодека : A_AC3
Продолжительность : 26 м.
Вид битрейта : Постоянный
Битрейт : 192 Кбит/сек
Канал(ы) : 2 канала(ов)
Расположение каналов : Front: L R
Частота : 48,0 КГц
Битовая глубина : 16 бит
Метод сжатия : С потерями
Размер потока : 36,1 Мбайт (5%)
Заголовок : LE-Production (Тимиркан Сиюхов)
Язык : Russian

Part 1 of 2
Part 2 of 2






   Похожие торренты   Торрент   Размер 
В этой теме нет новых непрочитанных сообщений. Люпен Третий: Приключения в Италии / Lupin Sansei (2015) / Lupin the 3rd Part 4 [TV] [01-08] (2015) HDTVRip 720 | Persona99

15 | 5

2.92 ГБ

В этой теме нет новых непрочитанных сообщений. Люпен Третий: Приключения в Италии / Lupin III: Italiano (Blue Jacket) [TV-4] [01 из 24] (2015) HDTVRip 720p | LE-Production

20 | 22

437.39 МБ

В этой теме нет новых непрочитанных сообщений. Люпен Третий: Приключения в Италии / Lupin III: Italiano (Blue Jacket) [TV-4] [01 из 24] (2015) HDTVRip 720p | LE-Production

21 | 5

831.82 МБ

В этой теме нет новых непрочитанных сообщений. Люпен Третий: Приключения в Италии / Lupin III: Italiano (Blue Jacket) [TV-4] [01-05 из 26] (2015) HDTVRip 720p | LE-Production

28 | 1

1.36 ГБ

В этой теме нет новых непрочитанных сообщений. Люпен Третий: Приключения в Италии / Lupin the 3rd Part 4 [TV] [01-13] (2015) HDTVRip 720 | Persona99

8 | 5

4.63 ГБ

В этой теме нет новых непрочитанных сообщений. Люпен Третий: Приключения в Италии / Lupin the 3rd Part 4 [TV] [01-11] (2015) HDTVRip 720 | Persona99

5 | 0

3.93 ГБ

В этой теме нет новых непрочитанных сообщений. Люпен III против Детектива Конана (фильм) / Lupin III vs. Detective Conan The Movie (2013) BDRip 720 | Persona99

14 | 5

2.92 ГБ




Вы не можете начинать темы
Вы не можете отвечать на сообщения
Вы не можете редактировать свои сообщения
Вы не можете удалять свои сообщения
Вы не можете добавлять вложения

Перейти:  
Для Мосгорсуда, Роскомнадзора и рекламодателей: mosgorsud-torrent[собачка]yandex.ru
 Вход
ppkBB3cker v.2 © 2008-2014 @ PPK
[ Time : 0.583s | 15 Queries | GZIP : Off ]

Торрент трекер RUTOR.IN, Не можете зайти на rutor.org? Какой новый адрес рутор? Какое зеркало рутор? Не работает rutor.org и зеркала? Тогда наш торрент специально для вас. Rutor.in неофициальное зеркало rutor. В случае если у Вас заблокирован rutor или вдруг Вы не можете на него зайти, то Вы без труда сможете скачать бесплатно и без рекламы последние новинки кино, игр, сериалов и прочего у нас, на Rutor.in. Не нужно использовать прокси, чтобы зайти на рутор, достаточно воспользоваться нашим ресурсом. Все новые фильмы, игры, сериалы, книги и музыка за 2013 и 2014 годы через торрент бесплатно. Скачивайте фильмы в хорошем качестве, игры для пк, xbox, playstation без регистрации. У нас вы найдете новые Зарубежные сериалы и Русские сериалы 2013, 2014, 2015 годов. Оставайтесь с нами, качайте любимые фильмы, игры, сериалы, книги и музыку.