img image001 image001 image001 image001 image001 image001 image001 image001 image001 image001 image001 image001 image001 image001 image001

Planets Sun Sun Sun
Статистика раздачи
Автор: Nickolas3434 | Размер: 5.28 ГБ | Добавлен: 15 дек 2014
Раздают: 89    Качают: 9
Скачать торрент
Скачать торрент
Описание торрента

СообщениеДобавлено: 15 дек 2014 

Ветер крепчает / Kaze Tachinu / The Wind Rises


Название: Ветер крепчает
Оригинальное название: Kaze tachinu
Год выхода: 2013
Жанр: аниме, мультфильм, драма, биография
Режиссер: Хаяо Миядзаки
В ролях: Хидеаки Анно, Хидэтоси Нисидзима, Миори Такимото, Масахико Нисимура, Мансай Номура, Морио Кадзама, Дзюн Кунимура, Мираи Сида, Кейко Такэсита, Синобу Отакэ

О фильме:

Мальчик Дзиро мечтает о полетах и красивых самолетах, способных обогнать ветер. Вот только пилотом ему не стать — он с рождения близорук. Но Дзиро не расстается с мечтой о небе, он начинает придумывать идеальный самолет и со временем становится одним из лучших авиаконструкторов мира. На пути к успеху он не только встретит много интересных людей, переживет Великое землетрясение в Токио и жестокие войны, но и обретет любовь своей жизни — прекрасную Наоко.



Выпущено: Studio Ghibli
Продолжительность: 02:01:32
Страна: Япония
Перевод:
русские субтитры по дубляжу Reanimedia (srt, внешним файлом)
английские субтитры с BD (srt, внешним файлом)
Озвучка:
полное дублирование от Reanimedia
авторский одноголосый (муж.) от А. Гаврилов

Озвучка Гаврилова осуществлена благодаря пользователям ресурса hdtracker: Xerman13, therox, dunhill200, Chistobaev, lexal, v111o, Role, Loki, KpucTo161, edsz, moon_sea, olegsoleg, ория, 8bitman, savely75.

Файл
Качество: BDRip
Автор рипа: CtrlHD
Тип релиза: Без хардсаба
Формат видео: MKV
Видео: AVC (8bit), 1280x692, 4572 Kbps, 23,976 fps
Аудио RUS#1 (int.): AC3, 192 Kbps, 48000 Hz, 1ch - Reanimedia
Аудио RUS#2 (int.): AC3, 448 Kbps, 48000 Hz, 2ch - А. Гаврилов
Аудио ENG: AC3, 192 Kbps, 48000 Hz, 1ch
Аудио JAP: AC3, 448 Kbps, 48000 Hz, 1ch

В качестве звуковых эффектов в фильме в основном используются человеческие голоса.
Главный герой Дзиро Хорикоси - это вымышленный персонаж, который был создан на основе смеси реальных историй жизни Тацуо Хори (Tatsuo Hori), автора одноименного рассказа, и Джиро Хорикоси (Jiro Horikoshi) - дизайнера самолета «Zero fighter». Название же фильма взято из перевода Хори цитаты из стихотворения Поля Валери «Le cimetiere marin».
[*]Хаяо Миядзаки на Венецианском кинофестивале заявил, что это его последняя полнометражная работа.
Формат : Matroska
Версия формата : Version 4 / Version 2
Размер файла : 5,28 Гбайт
Продолжительность : 2 ч. 6 м.
Общий поток : 5971 Кбит/сек
Дата кодирования : UTC 2014-12-11 17:15:16
Программа кодирования : mkvmerge v7.1.0 ('Good Love') 32bit built on Jul 27 2014 12:59:18
Библиотека кодирования : libebml v1.3.0 + libmatroska v1.4.1

Видео
Идентификатор : 1
Формат : AVC
Формат/Информация : Advanced Video Codec
Профиль формата : High@L4.1
Параметр CABAC формата : Да
Параметр ReFrames формата : 9 кадров
Идентификатор кодека : V_MPEG4/ISO/AVC
Продолжительность : 2 ч. 6 м.
Битрейт : 4572 Кбит/сек
Ширина : 1280 пикселей
Высота : 692 пикселя
Соотношение сторон : 1,85:1
Режим частоты кадров : Постоянный
Частота кадров : 23,976 кадра/сек
Цветовое пространство : YUV
Субдискретизация насыщенности : 4:2:0
Битовая глубина : 8 бит
Тип развёртки : Прогрессивная
Бит/(Пиксели*Кадры) : 0.215
Размер потока : 4,04 Гбайт (77%)
Заголовок : CtrlHD
Язык : Japanese
Default : Да
Forced : Нет

Аудио #1
Идентификатор : 2
Формат : AC-3
Формат/Информация : Audio Coding 3
Расширение режима : CM (complete main)
Параметр Endianness формата : Big
Идентификатор кодека : A_AC3
Продолжительность : 2 ч. 6 м.
Вид битрейта : Постоянный
Битрейт : 192 Кбит/сек
Каналы : 1 канал
Расположение каналов : Front: C
Частота : 48,0 КГц
Битовая глубина : 16 бит
Метод сжатия : С потерями
Размер потока : 174 Мбайт (3%)
Заголовок : Reanimedia
Язык : Russian
Default : Да
Forced : Нет

Аудио #2
Идентификатор : 3
Формат : AC-3
Формат/Информация : Audio Coding 3
Расширение режима : CM (complete main)
Параметр Endianness формата : Big
Идентификатор кодека : A_AC3
Продолжительность : 2 ч. 6 м.
Вид битрейта : Постоянный
Битрейт : 448 Кбит/сек
Каналы : 2 канала
Расположение каналов : Front: L R
Частота : 48,0 КГц
Битовая глубина : 16 бит
Метод сжатия : С потерями
Размер потока : 405 Мбайт (8%)
Заголовок : Гаврилов
Язык : Russian
Default : Нет
Forced : Нет

Аудио #3
Идентификатор : 4
Формат : AC-3
Формат/Информация : Audio Coding 3
Расширение режима : CM (complete main)
Параметр Endianness формата : Big
Идентификатор кодека : A_AC3
Продолжительность : 2 ч. 6 м.
Вид битрейта : Постоянный
Битрейт : 192 Кбит/сек
Каналы : 1 канал
Расположение каналов : Front: C
Частота : 48,0 КГц
Битовая глубина : 16 бит
Метод сжатия : С потерями
Размер потока : 174 Мбайт (3%)
Язык : English
Default : Нет
Forced : Нет

Аудио #4
Идентификатор : 5
Формат : AC-3
Формат/Информация : Audio Coding 3
Расширение режима : CM (complete main)
Параметр Endianness формата : Big
Идентификатор кодека : A_AC3
Продолжительность : 2 ч. 6 м.
Вид битрейта : Постоянный
Битрейт : 448 Кбит/сек
Каналы : 1 канал
Расположение каналов : Front: C
Частота : 48,0 КГц
Битовая глубина : 16 бит
Метод сжатия : С потерями
Размер потока : 405 Мбайт (8%)
Язык : Japanese
Default : Нет
Forced : Нет

Меню
00:00:00.000 : ja:00:00:00.000
00:07:09.220 : ja:00:07:09.220
00:12:52.689 : ja:00:12:52.689
00:21:53.979 : ja:00:21:53.979
00:30:06.471 : ja:00:30:06.471
00:37:49.434 : ja:00:37:49.434
00:44:57.528 : ja:00:44:57.528
00:52:59.635 : ja:00:52:59.635
01:00:33.755 : ja:01:00:33.755
01:08:06.290 : ja:01:08:06.290
01:17:12.920 : ja:01:17:12.920
01:28:44.027 : ja:01:28:44.027
01:35:20.548 : ja:01:35:20.548
01:46:39.059 : ja:01:46:39.059
01:52:45.884 : ja:01:52:45.884
02:02:56.744 : ja:02:02:56.744


Спасибо большое Reigar.!



   Похожие торренты   Торрент   Размер 
В этой теме нет новых непрочитанных сообщений. Ветер крепчает / Kaze tachinu (2013) BDRip 720p

345 | 54

2.98 ГБ

В этой теме нет новых непрочитанных сообщений. Ветер крепчает / Kaze Tachinu / The Wind Rises (2013) BDRip 720p

321 | 31

5.27 ГБ

В этой теме нет новых непрочитанных сообщений. Ветер крепчает / The Wind Rises / Kaze tachinu (2013) BDRip 720p от HQ-ViDEO

198 | 56

4.65 ГБ

В этой теме нет новых непрочитанных сообщений. Ветер крепчает / Kaze tachinu (2013) BDRip-AVC | iPad | D

17 | 6

2.05 ГБ

В этой теме нет новых непрочитанных сообщений. Ветер крепчает / Kaze Tachinu (2013) BDRip 1080p от NNNB

125 | 29

5.77 ГБ

В этой теме нет новых непрочитанных сообщений. OST - Ветер крепчает / Kaze Tachinu (2013) MP3

5 | 4

185.48 МБ

В этой теме нет новых непрочитанных сообщений. Ветер крепчает / Kaze Tachinu (2013) DVB

753 | 154

3 ГБ




Вы не можете начинать темы
Вы не можете отвечать на сообщения
Вы не можете редактировать свои сообщения
Вы не можете удалять свои сообщения
Вы не можете добавлять вложения

Перейти:  
Для Мосгорсуда, Роскомнадзора и рекламодателей: mosgorsud-torrent[собачка]yandex.ru
 Вход
ppkBB3cker v.2 © 2008-2014 @ PPK
[ Time : 0.086s | 15 Queries | GZIP : Off ]

Торрент трекер RUTOR.IN, Не можете зайти на rutor.org? Какой новый адрес рутор? Какое зеркало рутор? Не работает rutor.org и зеркала? Тогда наш торрент специально для вас. Rutor.in неофициальное зеркало rutor. В случае если у Вас заблокирован rutor или вдруг Вы не можете на него зайти, то Вы без труда сможете скачать бесплатно и без рекламы последние новинки кино, игр, сериалов и прочего у нас, на Rutor.in. Не нужно использовать прокси, чтобы зайти на рутор, достаточно воспользоваться нашим ресурсом. Все новые фильмы, игры, сериалы, книги и музыка за 2013 и 2014 годы через торрент бесплатно. Скачивайте фильмы в хорошем качестве, игры для пк, xbox, playstation без регистрации. У нас вы найдете новые Зарубежные сериалы и Русские сериалы 2013, 2014, 2015 годов. Оставайтесь с нами, качайте любимые фильмы, игры, сериалы, книги и музыку.