img image001 image001 image001 image001 image001 image001 image001 image001 image001 image001 image001 image001 image001 image001 image001

Planets Sun Sun Sun
Статистика раздачи
Автор: Nickolas3434 | Размер: 3.32 ГБ | Добавлен: 21 дек 2014
Раздают: 94    Качают: 47
Скачать торрент
Скачать торрент
Описание торрента

СообщениеДобавлено: 21 дек 2014 

Информация о фильме
Название: Берсерк. Золотой век: Фильм III. Сошествие / Берсерк: Сошествие
Оригинальное название: Berserk Ogon Jidai-Hen III: Korin / Berserk Golden Age Arc III: Descent
Год выхода: 2013
Жанр: приключения, фэнтези, драма
Режиссер: Тосиюки Кубоока
В ролях:
Такахиро Фудзивара, Хироаки Иванага, Юки Кадзи, Кэрри Керанен, Минако Котобуки, Рикия Кояма, Ёсиро Мацумото, Кэнта Миякэ, Сакурай Такахиро, Яо Кадзуки, ...
О фильме:
Длившийся несколько мгновений «Золотой век» Мидланда оборачивается бессмысленным, беспросветным и кажущимся бесконечным Средневековьем. Взлетевшего до небес Гриффита в интересах короны бросают в один из подвалов Башни Возрождения в Виндхейме, где талантливый палач быстро превращает «ястреба» в немую неподвижную куклу. Подчиненные же Гриффита приходят к тому, с чего начинали, – усталой, голодной и находящейся при смерти банде наемников.
Тем временем Гатс в который уже раз сходит с однажды избранного пути. Вернуться к возлюбленной и спасти лучшего друга – вот о чем думает человек, которому еще при рождении из трупа было уготовано всегда жить одиночкой. Но стоит ли вставать на пути судьбы и надвигающегося апокалипсиса, если в итоге лишишься правого глаза, левой руки и привычного окружения? «Стоит», – решает берсерк в попытке спасти хоть кого-то из друзей и пройти до конца Путь Мести.
© Ярослав Гафнер, World Art

Официальный сайт
Страна: Япония
Студия: Studio 4°C
Продолжительность: 01:47:47
Перевод: русский профессиональный (полное дублирование) от студии «Реанимедиа»
Файл
Формат: MKV
Кодек: H.264, 10 бит
Качество: BDRip 1080p
Видео: 1920x816, ~1400 Кбит/сек, 23,976 кадра/сек
Звук: RUS - AC3, ~448 Kbps, 48000 Hz, 6 ch - дубляж от Reanimedia
General
Unique ID : 174621651688119237564102400241259663982 (0x835EE8238CCFE8FA83770D6E0EA2526E)
Complete name : E:Anime FilmBerserk - Golden Age Chapter III - Advent [Special Version][Reanimedia]Berserk - Golden Age Chapter III - Advent [Special Version][Reanimedia].mkv
Format : Matroska
Format version : Version 4 / Version 2
File size : 2.27 GiB
Duration : 1h 47mn
Overall bit rate : 3 013 Kbps
Movie name : ripped by 霜月助平 sponsored by Jsum
Encoded date : UTC 2014-12-20 13:04:18
Writing application : mkvmerge v7.4.0 ('Circles') 64bit built on Dec 12 2014 12:19:56
Writing library : libebml v1.3.0 + libmatroska v1.4.1
DURATION : 01:47:50.720000000
NUMBER_OF_FRAMES : 202210
NUMBER_OF_BYTES : 362360320
_STATISTICS_WRITING_APP : mkvmerge v7.4.0 ('Circles') 64bit built on Dec 12 2014 12:19:56
_STATISTICS_WRITING_DATE_UTC : 2014-12-20 13:04:18
_STATISTICS_TAGS : BPS DURATION NUMBER_OF_FRAMES NUMBER_OF_BYTES
Video
ID : 1
Format : AVC
Format/Info : Advanced Video Codec
Format profile : High 10@L5.1
Format settings, CABAC : Yes
Format settings, ReFrames : 7 frames
Codec ID : V_MPEG4/ISO/AVC
Duration : 1h 47mn
Bit rate : 2 505 Kbps
Width : 1 920 pixels
Height : 816 pixels
Display aspect ratio : 2.35:1
Frame rate mode : Constant
Frame rate : 23.976 fps
Color space : YUV
Chroma subsampling : 4:2:0
Bit depth : 10 bits
Scan type : Progressive
Bits/(Pixel*Frame) : 0.067
Stream size : 1.89 GiB (83%)
Writing library : x264 core 133 r2334+704+50 a7549b7 tMod [10-bit@all X86]
Language : English
Default : Yes
Forced : No
DURATION : 01:47:47.419000000
NUMBER_OF_FRAMES : 155064
NUMBER_OF_BYTES : 2073564384
_STATISTICS_WRITING_APP : mkvmerge v7.4.0 ('Circles') 64bit built on Dec 12 2014 12:19:56
_STATISTICS_WRITING_DATE_UTC : 2014-12-20 13:04:18
_STATISTICS_TAGS : BPS DURATION NUMBER_OF_FRAMES NUMBER_OF_BYTES
Matrix coefficients : BT.709-5, BT.1361, IEC 61966-2-4 709, SMPTE RP177
Audio
ID : 2
Format : AC-3
Format/Info : Audio Coding 3
Mode extension : CM (complete main)
Codec ID : A_AC3
Duration : 1h 47mn
Bit rate mode : Constant
Bit rate : 448 Kbps
Channel(s) : 6 channels
Channel positions : Front: L C R, Side: L R, LFE
Sampling rate : 48.0 KHz
Bit depth : 16 bits
Compression mode : Lossy
Stream size : 346 MiB (15%)
Title : Reanimedia
Language : Russian
Default : Yes
Forced : No



Страна: Япония
Год выпуска: 2013 г.
Жанр: приключения, фэнтези, драма
Продолжительность: 01:47:47
Режиссер: Кубока Тосиюки

Студия:
Краткое содержание:R-18 Director's Cut

Официальный сайт

Качество: BDRip
Тип релиза: Без хардсаба
Формат видео: AVI
Кодек: XviD
Видео: 720x304, 1200 Кбит/сек, 23,976 кадра/сек
Аудио: AC3, 192 Кбит/сек, 48 КГц, 2CH Язык Русский дубляж от Reanimedia ;
General
Complete name : E:Anime FilmBerserk - Golden Age Chapter III - Advent [Special Version][Reanimedia]Berserk - Golden Age Chapter III - Advent [Special Version][Reanimedia].avi
Format : AVI
Format/Info : Audio Video Interleave
File size : 1.05 GiB
Duration : 1h 47mn
Overall bit rate : 1 401 Kbps
Writing application : VirtualDubMod 1.5.10.3 | www.virtualdub-fr.org || (build 2550/release)
Writing library : VirtualDubMod build 2550/release
Video
ID : 0
Format : MPEG-4 Visual
Format profile : Advanced Simple@L5
Format settings, BVOP : 2
Format settings, QPel : No
Format settings, GMC : No warppoints
Format settings, Matrix : Default (H.263)
Codec ID : XVID
Codec ID/Hint : XviD
Duration : 1h 47mn
Bit rate : 1 200 Kbps
Width : 720 pixels
Height : 304 pixels
Display aspect ratio : 2.35:1
Frame rate : 23.976 fps
Color space : YUV
Chroma subsampling : 4:2:0
Bit depth : 8 bits
Scan type : Progressive
Compression mode : Lossy
Bits/(Pixel*Frame) : 0.229
Stream size : 925 MiB (86%)
Writing library : XviD 1.2.1 (UTC 2008-12-04)
Audio
ID : 1
Format : AC-3
Format/Info : Audio Coding 3
Mode extension : CM (complete main)
Codec ID : 2000
Duration : 1h 47mn
Bit rate mode : Constant
Bit rate : 192 Kbps
Channel(s) : 2 channels
Channel positions : Front: L R
Sampling rate : 48.0 KHz
Bit depth : 16 bits
Compression mode : Lossy
Stream size : 148 MiB (14%)
Alignment : Split accross interleaves
Interleave, duration : 42 ms (1.00 video frame)
Interleave, preload duration : 500 ms


Релиз от:



   Похожие торренты   Торрент   Размер 
В этой теме нет новых непрочитанных сообщений. Берсерк. Золотой век: Фильм III. Сошествие / Berserk Ogon Jidai-Hen III: Korin (2013) BDRip 720p от UA MAX | L2 | Director's Cut

102 | 17

1.3 ГБ

В этой теме нет новых непрочитанных сообщений. Берсерк. Золотой век: Фильм I. Бехерит Властителя / Berserk Ogon Jidai-hen I: Hao no Tamago (2012) BDRip 1080p от Freeisland

80 | 23

4.37 ГБ

В этой теме нет новых непрочитанных сообщений. Берсерк: Золотой век. Фильм 2: Битва за Долдрей / Berserk Ogon Jidai-hen II: Doldrey Koryaku (2012) BDRip 1080p от Freeisland

73 | 7

5.76 ГБ

В этой теме нет новых непрочитанных сообщений. Берсерк. Золотой век: Фильм III. Сошествие / Berserk: The Golden Age Arc III - Descent (2013) BDRip 1080p от NNNB

197 | 9

5.76 ГБ

В этой теме нет новых непрочитанных сообщений. Берсерк: Золотой век. Фильм II. Битва за Долдрей / Berserk Ogon J (2012) BDRip 1080p от Killbrain and Scarabey | Лицензия | Русский видеоряд

183 | 26

3.95 ГБ

В этой теме нет новых непрочитанных сообщений. Берсерк: Золотой век (фильм) / Berserk: Golden Age Arc [movie] [1-3+1 из 3+1] (2012 - 2013) BDRip [HWP] от UA MAX |D, L2

186 | 18

4.41 ГБ

В этой теме нет новых непрочитанных сообщений. Берсерк: Золотой век (фильм) / Berserk: Golden Age Arc [movie] [1-3+1 из 3+1] (2012 - 2013) BDRip [Hi10P] от UA MAX |D, L2

80 | 23

8.18 ГБ




Вы не можете начинать темы
Вы не можете отвечать на сообщения
Вы не можете редактировать свои сообщения
Вы не можете удалять свои сообщения
Вы не можете добавлять вложения

Перейти:  
Для Мосгорсуда, Роскомнадзора и рекламодателей: mosgorsud-torrent[собачка]yandex.ru
 Вход
ppkBB3cker v.2 © 2008-2014 @ PPK
[ Time : 0.120s | 15 Queries | GZIP : Off ]
CGP output time : 0.028s | 5 Queries | GZIP : Off

Торрент трекер RUTOR.IN, Не можете зайти на rutor.org? Какой новый адрес рутор? Какое зеркало рутор? Не работает rutor.org и зеркала? Тогда наш торрент специально для вас. Rutor.in неофициальное зеркало rutor. В случае если у Вас заблокирован rutor или вдруг Вы не можете на него зайти, то Вы без труда сможете скачать бесплатно и без рекламы последние новинки кино, игр, сериалов и прочего у нас, на Rutor.in. Не нужно использовать прокси, чтобы зайти на рутор, достаточно воспользоваться нашим ресурсом. Все новые фильмы, игры, сериалы, книги и музыка за 2013 и 2014 годы через торрент бесплатно. Скачивайте фильмы в хорошем качестве, игры для пк, xbox, playstation без регистрации. У нас вы найдете новые Зарубежные сериалы и Русские сериалы 2013, 2014, 2015 годов. Оставайтесь с нами, качайте любимые фильмы, игры, сериалы, книги и музыку.