img image001 image001 image001 image001 image001 image001 image001 image001 image001 image001 image001 image001 image001 image001 image001

Planets Sun Sun Sun
Статистика раздачи
Автор: Nickolas3434 | Размер: 743.74 МБ | Добавлен: 23 дек 2014
Раздают: 61    Качают: 2
Скачать торрент
Скачать торрент
Описание торрента

СообщениеДобавлено: 23 дек 2014 

Название: Серебряновласый Агито / Исток: Духи прошлого
Оригинальное название: Gin'iro no kami no Agito / Origin: Spirits of the Past
Год выпуска: 2006
Жанр: драма, романтика, фантастика
Режиссер: Сугияма Кэйити
Автор оригинала: Иида Уманосукэ
Описание:
Три века назад Лес пробудился, и Луна низвергла на Землю зловещего Зверя. Род людской обратился в ужас... Ныне мир совсем не похож на то, чем он был до катастрофы. Остатки человечества малочисленны и разобщены: часть пытается сосуществовать с Лесом, другая часть ищет способы покорить то, чего не способна понять. Агито, сын героя, ставит под угрозу уничтожения всех людей, пробудив от векового сна юную Тулу. Увидев, во что превратилась Земля, Тула призывает древнюю технологию, чтобы выстроить новое будущее на останках прежнего мира. Заручившись благословением Леса, Агито должен спасти девушку от самой себя - ведь только так можно уберечь человеческую расу от окончательной гибели.
MyAnimeList | World-Art
Страна: Япония
Продолжительность: 01:34:16
Перевод: Профессиональный (многоголосый закадровый) от MC Entertainment
Субтитры: полухардсаб (ENG) (только караоке в финальных титрах)
Файл
Качество: HDRip (Источник: BDRip/720p)
Размер основного файла: 744 MB ~ 1/6 DVD диска.
Формат: AVI
Видео кодек: XviD
Аудио кодек: MP3
Видео: 688х384 (1:1.79), 23.976 fps, XviD build 50, ~966 kbps avg, 0.152 bit/pixel
Аудио: (RUS) MPEG Layer 3, 2 ch, 48 kHz, 128.00 kbps avg
17:19 18.07.2010General
Complete name : G:TorrentРаздачиСеребряновласый АгитоGin'iro_no_Kami_no_Agito_(2006).avi
Format : AVI
Format/Info : Audio Video Interleave
File size : 744 MiB
Duration : 1h 34mn
Overall bit rate : 1 103 Kbps
Movie name : Серебряновласый Агито / Исток: Духи прошлого (2006)
Director :
Writing application : VirtualDubMod 1.5.10.2 (build 2540/release) VirtualDubMod build 2540/release
Video
ID : 0
Format : MPEG-4 Visual
Format profile : Advanced Simple@L5
Format settings, BVOP : Yes
Format settings, QPel : No
Format settings, GMC : No warppoints
Format settings, Matrix : Default (MPEG)
Codec ID : XVID
Codec ID/Hint : XviD
Duration : 1h 34mn
Bit rate : 966 Kbps
Width : 688 pixels
Height : 384 pixels
Display aspect ratio : 16:9
Frame rate : 23.976 fps
Color space : YUV
Chroma subsampling : 4:2:0
Bit depth : 8 bits
Scan type : Progressive
Bits/(Pixel*Frame) : 0.152
Stream size : 651 MiB (88%)
Writing library : XviD 1.2.1 (UTC 2008-12-04)
Audio
ID : 1
Format : MPEG Audio
Format version : Version 1
Format profile : Layer 3
Codec ID : 55
Codec ID/Hint : MP3
Duration : 1h 34mn
Bit rate mode : Constant
Bit rate : 128 Kbps
Channel(s) : 2 channels
Sampling rate : 48.0 KHz
Stream size : 86.3 MiB (12%)
Alignment : Aligned on interleaves
Interleave, duration : 42 ms (1.00 video frame)
Interleave, preload duration : 504 ms
Writing library : LAME3.98r
Encoding settings : -m s -V 4 -q 2 -lowpass 17 -b 128
Language : un

Спасибо большое VIRUS!



   Похожие торренты   Торрент   Размер 
В этой теме нет новых непрочитанных сообщений. OST - Серебряновласый Агито / Исток: Духи прошлого / Gin`iro no Kami no Agito / Origin - Spirits of the past (2006) MP3

10 | 2

240.28 МБ

В этой теме нет новых непрочитанных сообщений. Серебряновласый Агито / Исток: Духи прошлого / Gin'iro no kami no Agito / Origin: Spirits of the Past (2006) BDRip 1080p | P, L1, A

7 | 2

7.35 ГБ

В этой теме нет новых непрочитанных сообщений. Серебряновласый Агито / Исток: Духи прошлого / Gin'iro no kami no Agito / Origin: Spirits of the Past (2006) BDRip 720p | P, L1

10 | 3

4.72 ГБ

В этой теме нет новых непрочитанных сообщений. Исток / Gin-iro no kami no Agito (2006) BDRip-AVC | iPad | P,A

67 | 11

1.67 ГБ

В этой теме нет новых непрочитанных сообщений. Последняя фантазия: Духи внутри / Final Fantasy: The Spirits Within (2001) HDRip-AVC от NNNB

267 | 10

2.18 ГБ

В этой теме нет новых непрочитанных сообщений. Злые духи / Evil Spirits (1990) DVDRip | A

59 | 17

1.37 ГБ

В этой теме нет новых непрочитанных сообщений. Греция: Тайны прошлого / IMAX - Greece: Secrets of the Past (2006) BDRip от R.G.RealMT

11 | 3

703.64 МБ




Вы не можете начинать темы
Вы не можете отвечать на сообщения
Вы не можете редактировать свои сообщения
Вы не можете удалять свои сообщения
Вы не можете добавлять вложения

Перейти:  
Для Мосгорсуда, Роскомнадзора и рекламодателей: mosgorsud-torrent[собачка]yandex.ru
 Вход
ppkBB3cker v.2 © 2008-2014 @ PPK
[ Time : 0.041s | 16 Queries | GZIP : Off ]

Торрент трекер RUTOR.IN, Не можете зайти на rutor.org? Какой новый адрес рутор? Какое зеркало рутор? Не работает rutor.org и зеркала? Тогда наш торрент специально для вас. Rutor.in неофициальное зеркало rutor. В случае если у Вас заблокирован rutor или вдруг Вы не можете на него зайти, то Вы без труда сможете скачать бесплатно и без рекламы последние новинки кино, игр, сериалов и прочего у нас, на Rutor.in. Не нужно использовать прокси, чтобы зайти на рутор, достаточно воспользоваться нашим ресурсом. Все новые фильмы, игры, сериалы, книги и музыка за 2013 и 2014 годы через торрент бесплатно. Скачивайте фильмы в хорошем качестве, игры для пк, xbox, playstation без регистрации. У нас вы найдете новые Зарубежные сериалы и Русские сериалы 2013, 2014, 2015 годов. Оставайтесь с нами, качайте любимые фильмы, игры, сериалы, книги и музыку.
cron