img image001 image001 image001 image001 image001 image001 image001 image001 image001 image001 image001 image001 image001 image001 image001

Planets Sun Sun Sun
Статистика раздачи
Автор: Nickolas3434 | Размер: 296.11 МБ | Добавлен: 25 дек 2014
Раздают: 9    Качают: 2
Скачать торрент
Скачать торрент
Описание торрента

СообщениеДобавлено: 25 дек 2014 

Страна: Япония
Год выпуска: 1995 г.
Жанр: комедия, пародия, махо-сёдзё, сёнен
Тип: OVA (1 эп.), 30 мин.
Режиссер: Мурата Кадзуя
Студия:
Описание:
Адаптация игры.
Макенка был обычным парнем, пока его не похитил мозговой монстр, доктор Муд, который переделал его в киборга, чтобы захватить оба мира, мир монстров и мир людей! Стремясь отомстить, он присоединяется к Макендо, охотникам на монстров, Май, которая предпочла бы им не быть, и её младшей сестре Хикари, только этого и желающая! Нашему трио предстоит разобраться с полчищем подлых демонов и странных монстров, чтобы вернуть прежнее тело Макенки.
Доп. информация:
Релиз Get SmartGroup

Качество: LDRip
Тип релиза: Без хардсаба
Формат видео: AVI
Релиз/Автор рипа: [Tomodachi]
Совместимость с бытовыми плеерами: Нет
Видео: XviD MPEG-4, 640x480, ~1295 kbps, 23.976 fps, 8 бит
Аудио: MP3, 128 kbps, 48kHz, 2ch ; Язык Русский (в составе контейнера) ; Озвучка: Persona99 (женская; одноголосая)
Аудио 2: MP3, 128 kbps, 48kHz, 2ch ; Язык Японский (в составе контейнера) ; Озвучка 2: Original
Субтитры: ASS, внешние ; Язык субтитров русский ; Перевод: Rin Перевод песен: Asa Sempai Редактор: ilivit
Код:
Общее
Полное имя                               : Makeruna! Makendo [Persona99.GSG]Makeruna! Makendo [Persona99.GSG].avi
Формат                                   : AVI
Формат/Информация                        : Audio Video Interleave
Профиль формата                          : OpenDML
Настройки формата                        : rec
Размер файла                             : 296 Мбайт
Продолжительность                        : 26 м.
Общий поток                              : 1556 Кбит/сек
Программа кодирования                    : AVI-Mux GUI 1.17.8.3, Feb 16 201019:42:50
Видео
Идентификатор                            : 0
Формат                                   : MPEG-4 Visual
Профиль формата                          : Advanced Simple@L5
Параметр BVOP формата                    : 3
Параметр QPel формата                    : Да
Параметр GMC формата                     : 3 точки перехода
Параметр матрицы формата                 : Default (H.263)
Режим смешивания                         : Сжатый битовый поток
Идентификатор кодека                     : XVID
Идентификатор кодека/Подсказка           : XviD
Продолжительность                        : 26 м.
Битрейт                                  : 1295 Кбит/сек
Ширина                                   : 640 пикселей
Высота                                   : 480 пикселей
Соотношение сторон                       : 4:3
Частота кадров                           : 23,976 кадра/сек
Цветовое пространство                    : YUV
Субдискретизация насыщенности            : 4:2:0
Битовая глубина                          : 8 бит
Тип развёртки                            : Прогрессивная
Метод сжатия                             : С потерями
Бит/(Пиксели*Кадры)                      : 0.176
Размер потока                            : 247 Мбайт (83%)
Библиотека кодирования                   : XviD 1.2.0.dev47 (UTC 2006-11-01)
Аудио #1
Идентификатор                            : 1
Формат                                   : MPEG Audio
Версия формата                           : Version 1
Профиль формата                          : Layer 3
Режим                                    : Joint stereo
Расширение режима                        : MS Stereo
Идентификатор кодека                     : 55
Идентификатор кодека/Подсказка           : MP3
Продолжительность                        : 26 м.
Вид битрейта                             : Постоянный
Битрейт                                  : 128 Кбит/сек
Каналы                                   : 2 канала
Частота                                  : 48,0 КГц
Метод сжатия                             : С потерями
Размер потока                            : 24,4 Мбайт (8%)
Выравнивание                             : Соединение по промежуткам
Продолжительность промежутка             : 576  мс. (13,81 видеокадров)
Время предзагрузки промежутка            : 216  мс.
Заголовок                                : Persona99
Библиотека кодирования                   : LAME3.99r
Настройки программы                      : -m j -V 4 -q 2 -lowpass 17 -b 128
Аудио #2
Идентификатор                            : 2
Формат                                   : MPEG Audio
Версия формата                           : Version 1
Профиль формата                          : Layer 3
Идентификатор кодека                     : 55
Идентификатор кодека/Подсказка           : MP3
Продолжительность                        : 26 м.
Вид битрейта                             : Постоянный
Битрейт                                  : 128 Кбит/сек
Каналы                                   : 2 канала
Частота                                  : 48,0 КГц
Метод сжатия                             : С потерями
Размер потока                            : 24,4 Мбайт (8%)
Выравнивание                             : Соединение по промежуткам
Продолжительность промежутка             : 576  мс. (13,81 видеокадров)
Время предзагрузки промежутка            : 216  мс.
Заголовок                                : Original
Библиотека кодирования                   : LAME3.97
Настройки программы                      : -m s -V 4 -q 2 -lowpass 17 -b 128
 


Sample: https://yadi.sk/i/fr73kFs5dYvrS



   Похожие торренты   Торрент   Размер 
В этой теме нет новых непрочитанных сообщений. Темница Одзанари: Башня ветра / Ozanari Dungeon: Kaze no Tou [OVA] (1991) LDRip | Persona99

0 | 0

1.94 ГБ

В этой теме нет новых непрочитанных сообщений. Отдам всю себя / Я вся твоя / Minna Agechau / I'm All Yours / I Give My All [Movie] (1987) LDRip | Persona99

719 | 30

436.15 МБ

В этой теме нет новых непрочитанных сообщений. Красный скорпион 2 / Red Scorpion 2 (1995) LDRip | A

4 | 5

692.17 МБ

В этой теме нет новых непрочитанных сообщений. Выпуск / Sotsugyou ~Graduation~ [02 из 02] (1995) LDRip | L2

0 | 0

618.72 МБ

В этой теме нет новых непрочитанных сообщений. Принцесса Минерва / Princess Minerva OVA (1995) DVDRip AVC | Persona99

32 | 1

591.31 МБ

В этой теме нет новых непрочитанных сообщений. Тандерберды вперед! / Предвестники бури, вперед! / Thunderbirds Are GO (1966) HDTV 1080i | P2

10 | 4

5.2 ГБ

В этой теме нет новых непрочитанных сообщений. Вперед, Диего! Вперед! / Go, Diego! Go! [S01-07] (2005-2011) DVDRip от New-Team | лицензия

1373 | 256

16.72 ГБ




Вы не можете начинать темы
Вы не можете отвечать на сообщения
Вы не можете редактировать свои сообщения
Вы не можете удалять свои сообщения
Вы не можете добавлять вложения

Перейти:  
Для Мосгорсуда, Роскомнадзора и рекламодателей: mosgorsud-torrent[собачка]yandex.ru
 Вход
ppkBB3cker v.2 © 2008-2014 @ PPK
[ Time : 0.054s | 16 Queries | GZIP : Off ]

cron