img image001 image001 image001 image001 image001 image001 image001 image001 image001 image001 image001 image001 image001 image001 image001

Planets Sun Sun Sun
Статистика раздачи
Автор: Nickolas3434 | Размер: 126.11 МБ | Добавлен: 26 дек 2014
Раздают: 12    Качают: 3
Скачать торрент
Скачать торрент
Описание торрента

СообщениеДобавлено: 26 дек 2014 

Страна: Япония
Год выпуска: 1996 г.
Жанр: приключения, комедия, фэнтези
Тип: OVA (1 эп.), 16 мин.
Продолжительность:
Режиссер: Итсуро Кавасаки
Студия:
Описание:
Короткометражное промо одноимённой видеоигры.
Действие разворачивается, за ночь до событий игры. Пустынная Millenial Square вдруг начинает кишеть весёлыми монстрами, появляющимися из порталов. Два главных героя — Nu и Mamo, монстры из оригинальной игры — пытаются набрать членов в свою группу «Nuumamonjaa». Поняв, что никто не хочет к ним присоединиться, они бродят по ярмарочной площади и срывают шоу робота Johnny.
Доп. информация:
Релиз

Get Smart Group
Качество: VHSRip
Тип релиза: Хардсаб
Формат видео: AVI
Релиз/Автор рипа: HnK
Совместимость с бытовыми плеерами: Нет
Видео: DIV3, 512х300, 841 kbps, 23.976 fps, 8 бит
Аудио: MP3, 128 kbps, 48kHz, 2ch ; Язык Русский (в составе контейнера) ; Озвучка: Persona99 (женская; одноголосая)
Аудио 2: MP3, 128 kbps, 48kHz, 1ch ; Язык Японский (в составе контейнера) ; Озвучка 2: Original
Субтитры: ASS, внешние ; Язык субтитров русский ; Перевод: Buka Оформление: Лeвиафaн
Английские не отключаемые субтитры
Код:
Общее
Полное имя                               : Chrono Trigger [Persona99.GSG]Chrono Trigger [Persona99.GSG].avi
Формат                                   : AVI
Формат/Информация                        : Audio Video Interleave
Профиль формата                          : OpenDML
Настройки формата                        : rec
Размер файла                             : 126 Мбайт
Продолжительность                        : 16 м.
Общий поток                              : 1101 Кбит/сек
Программа кодирования                    : AVI-Mux GUI 1.17.8.3, Feb 16 201019:42:50
Видео
Идентификатор                            : 0
Формат                                   : MPEG-4 Visual
Идентификатор кодека                     : DIV3
Идентификатор кодека/Подсказка           : DivX 3 Low
Продолжительность                        : 16 м.
Битрейт                                  : 841 Кбит/сек
Ширина                                   : 512 пикселей
Высота                                   : 300 пикселей
Соотношение сторон                       : 1,707
Частота кадров                           : 23,976 кадра/сек
Цветовое пространство                    : YUV
Субдискретизация насыщенности            : 4:2:0
Битовая глубина                          : 8 бит
Метод сжатия                             : С потерями
Бит/(Пиксели*Кадры)                      : 0.228
Размер потока                            : 96,3 Мбайт (76%)
Аудио #1
Идентификатор                            : 1
Формат                                   : MPEG Audio
Версия формата                           : Version 1
Профиль формата                          : Layer 3
Режим                                    : Joint stereo
Расширение режима                        : MS Stereo
Идентификатор кодека                     : 55
Идентификатор кодека/Подсказка           : MP3
Продолжительность                        : 16 м.
Вид битрейта                             : Постоянный
Битрейт                                  : 128 Кбит/сек
Каналы                                   : 2 канала
Частота                                  : 48,0 КГц
Метод сжатия                             : С потерями
Размер потока                            : 14,7 Мбайт (12%)
Выравнивание                             : Соединение по промежуткам
Продолжительность промежутка             : 739  мс. (17,72 видеокадров)
Время предзагрузки промежутка            : 216  мс.
Заголовок                                : Persona99
Библиотека кодирования                   : LAME3.99r
Настройки программы                      : -m j -V 4 -q 2 -lowpass 17 -b 128
Аудио #2
Идентификатор                            : 2
Формат                                   : MPEG Audio
Версия формата                           : Version 1
Профиль формата                          : Layer 3
Идентификатор кодека                     : 55
Идентификатор кодека/Подсказка           : MP3
Продолжительность                        : 16 м.
Вид битрейта                             : Постоянный
Битрейт                                  : 128 Кбит/сек
Каналы                                   : 1 канал
Частота                                  : 48,0 КГц
Метод сжатия                             : С потерями
Размер потока                            : 14,7 Мбайт (12%)
Выравнивание                             : Соединение по промежуткам
Продолжительность промежутка             : 739  мс. (17,72 видеокадров)
Время предзагрузки промежутка            : 216  мс.
Заголовок                                : Original
Библиотека кодирования                   : LAME3.99r
Настройки программы                      : -m m -V 4 -q 2 -lowpass 20.5 -b 128
 


Sample: https://yadi.sk/i/T0avdfnhdaTPL



   Похожие торренты   Торрент   Размер 
В этой теме нет новых непрочитанных сообщений. Под прицелом / Silent Trigger (1996) HDRip | A

128 | 47

743.09 МБ

В этой теме нет новых непрочитанных сообщений. Под прицелом / Silent Trigger (1996) BDRip | P2, A

82 | 7

746.13 МБ

В этой теме нет новых непрочитанных сообщений. Под прицелом / Silent Trigger (1996) HDRip

93 | 10

1.46 ГБ

В этой теме нет новых непрочитанных сообщений. Под прицелом / Silent Trigger (1996) HDRip-AVC | P2, A

123 | 22

2.18 ГБ

В этой теме нет новых непрочитанных сообщений. Под прицелом / Silent Trigger (1996) BDRip-AVC от HQCLUB

53 | 16

3.53 ГБ

В этой теме нет новых непрочитанных сообщений. Под прицелом / Silent Trigger (1996) BDRip 720p | P2, A

91 | 24

4.37 ГБ

В этой теме нет новых непрочитанных сообщений. Под прицелом / Silent Trigger (1996) BDRip 1080p

78 | 28

7.35 ГБ




Вы не можете начинать темы
Вы не можете отвечать на сообщения
Вы не можете редактировать свои сообщения
Вы не можете удалять свои сообщения
Вы не можете добавлять вложения

Перейти:  
Для Мосгорсуда, Роскомнадзора и рекламодателей: mosgorsud-torrent[собачка]yandex.ru
 Вход
ppkBB3cker v.2 © 2008-2014 @ PPK
[ Time : 0.031s | 17 Queries | GZIP : Off ]
CGP output time : 0.019s | 5 Queries | GZIP : Off

Торрент трекер RUTOR.IN, Не можете зайти на rutor.org? Какой новый адрес рутор? Какое зеркало рутор? Не работает rutor.org и зеркала? Тогда наш торрент специально для вас. Rutor.in неофициальное зеркало rutor. В случае если у Вас заблокирован rutor или вдруг Вы не можете на него зайти, то Вы без труда сможете скачать бесплатно и без рекламы последние новинки кино, игр, сериалов и прочего у нас, на Rutor.in. Не нужно использовать прокси, чтобы зайти на рутор, достаточно воспользоваться нашим ресурсом. Все новые фильмы, игры, сериалы, книги и музыка за 2013 и 2014 годы через торрент бесплатно. Скачивайте фильмы в хорошем качестве, игры для пк, xbox, playstation без регистрации. У нас вы найдете новые Зарубежные сериалы и Русские сериалы 2013, 2014, 2015 годов. Оставайтесь с нами, качайте любимые фильмы, игры, сериалы, книги и музыку.