img image001 image001 image001 image001 image001 image001 image001 image001 image001 image001 image001 image001 image001 image001 image001

Planets Sun Sun Sun
Статистика раздачи
Автор: Nickolas3434 | Размер: 151.07 МБ | Добавлен: 26 дек 2014
Раздают: 11    Качают: 3
Скачать торрент
Скачать торрент
Описание торрента

СообщениеДобавлено: 26 дек 2014 

Страна: Япония
Год выпуска: 2012 г.
Жанр: приключения, комедия, фэнтези
Тип: Special
Продолжительность: 11 мин.
Режиссер: Eiichiro Oda
Описание:
Спешал показывает нам Мугивар отдыхающих на Санни. Так же показано начало сакура-пати, с которой начинается Фильм Z.
Доп. информация:
Релиз GSGroup

Качество: HDRip
Тип релиза: Без хардсаба
Формат видео: AVI
Автор рипа: gsg
Совместимость с бытовыми плеерами: Да
Видео: XviD, 720x400, 1479 Kbps, 29.970 fps, 8 bits
Аудио: AC3, 48.0 KHz, 192 Kbps, 2 channels Язык Русский (в составе контейнера) ; Озвучка: женская одноголосая: Persona99
Аудио 2: AC3, 48.0 KHz, 192 Kbps, 2 channels Язык Японский ; Озвучка 2: оригинал
Субтитры: ASS, srt внешние Язык субтитров русский ; Перевод: Шамов Дмитрий и Horodep При поддержке One-Piece.Ru
Код:
General
Complete name                            : One Piece Film Z SpecialOne Piece Film Z Special - Glorious Island [Persona99].rus.jpn.avi
Format                                   : AVI
Format/Info                              : Audio Video Interleave
File size                                : 151 MiB
Duration                                 : 11mn 13s
Overall bit rate                         : 1 881 Kbps
Writing application                      : VirtualDubMod 1.5.10.2 (build 2540/release)
Writing library                          : VirtualDubMod build 2540/release
Video
ID                                       : 0
Format                                   : MPEG-4 Visual
Format profile                           : Advanced Simple@L5
Format settings, BVOP                    : 2
Format settings, QPel                    : No
Format settings, GMC                     : No warppoints
Format settings, Matrix                  : Default (H.263)
Codec ID                                 : XVID
Codec ID/Hint                            : XviD
Duration                                 : 11mn 13s
Bit rate                                 : 1 479 Kbps
Width                                    : 720 pixels
Height                                   : 400 pixels
Display aspect ratio                     : 16:9
Frame rate                               : 29.970 fps
Color space                              : YUV
Chroma subsampling                       : 4:2:0
Bit depth                                : 8 bits
Scan type                                : Progressive
Compression mode                         : Lossy
Bits/(Pixel*Frame)                       : 0.171
Stream size                              : 119 MiB (79%)
Writing library                          : XviD 1.2.1 (UTC 2008-12-04)
Audio #1
ID                                       : 1
Format                                   : AC-3
Format/Info                              : Audio Coding 3
Mode extension                           : CM (complete main)
Format settings, Endianness              : Big
Codec ID                                 : 2000
Duration                                 : 11mn 13s
Bit rate mode                            : Constant
Bit rate                                 : 192 Kbps
Channel(s)                               : 2 channels
Channel positions                        : Front: L R
Sampling rate                            : 48.0 KHz
Bit depth                                : 16 bits
Compression mode                         : Lossy
Stream size                              : 15.4 MiB (10%)
Alignment                                : Split accross interleaves
Interleave, duration                     : 33 ms (1.00 video frame)
Interleave, preload duration             : 500 ms
Audio #2
ID                                       : 2
Format                                   : AC-3
Format/Info                              : Audio Coding 3
Mode extension                           : CM (complete main)
Format settings, Endianness              : Big
Codec ID                                 : 2000
Duration                                 : 11mn 13s
Bit rate mode                            : Constant
Bit rate                                 : 192 Kbps
Channel(s)                               : 2 channels
Channel positions                        : Front: L R
Sampling rate                            : 48.0 KHz
Bit depth                                : 16 bits
Compression mode                         : Lossy
Stream size                              : 15.4 MiB (10%)
Alignment                                : Split accross interleaves
Interleave, duration                     : 33 ms (1.00 video frame)
Interleave, preload duration             : 500 ms
 




   Похожие торренты   Торрент   Размер 
В этой теме нет новых непрочитанных сообщений. 26 грабителей / Special 26 / Special Chabbis (2013) HDRip от Torrent-Xzona | КПК | P

12 | 5

450.25 МБ

В этой теме нет новых непрочитанных сообщений. Демоны старшей школы (первый сезон) / High School DxD [TV 1-12] [Special 1-6] (2012) BDRip AVC | Persona99

210 | 88

3.97 ГБ

В этой теме нет новых непрочитанных сообщений. Ван Пис: Золотое Сердце / One piece: Heart of Gold [Special]

84 | 16

2.23 ГБ

В этой теме нет новых непрочитанных сообщений. Ван-Пис: Приключения в Небуландии / One Piece: Adventure of Nebulandia [Special] (2015) HDTVRip | L1

46 | 5

1.5 ГБ

В этой теме нет новых непрочитанных сообщений. Заморозка / Freezing [TV] [01-12] [Special] [6 из 6] (2011) BDRip 480 | Persona99

5 | 12

4.85 ГБ

В этой теме нет новых непрочитанных сообщений. Кайто Кид - вор-фантом! / Волшебник Кайто / Magic Kaito [TV Special] (2010-2012) HDTVRip 720 | Persona99

20 | 11

3.91 ГБ

В этой теме нет новых непрочитанных сообщений. Кайто Кид - вор-фантом! / Magic Kaito / Kid the Phantom Thief [Special] [01-12 из 12] (2010) HDTVRip | Persona99

6 | 3

3.44 ГБ




Вы не можете начинать темы
Вы не можете отвечать на сообщения
Вы не можете редактировать свои сообщения
Вы не можете удалять свои сообщения
Вы не можете добавлять вложения

Перейти:  
Для Мосгорсуда, Роскомнадзора и рекламодателей: mosgorsud-torrent[собачка]yandex.ru
 Вход
ppkBB3cker v.2 © 2008-2014 @ PPK
[ Time : 0.034s | 15 Queries | GZIP : Off ]

Торрент трекер RUTOR.IN, Не можете зайти на rutor.org? Какой новый адрес рутор? Какое зеркало рутор? Не работает rutor.org и зеркала? Тогда наш торрент специально для вас. Rutor.in неофициальное зеркало rutor. В случае если у Вас заблокирован rutor или вдруг Вы не можете на него зайти, то Вы без труда сможете скачать бесплатно и без рекламы последние новинки кино, игр, сериалов и прочего у нас, на Rutor.in. Не нужно использовать прокси, чтобы зайти на рутор, достаточно воспользоваться нашим ресурсом. Все новые фильмы, игры, сериалы, книги и музыка за 2013 и 2014 годы через торрент бесплатно. Скачивайте фильмы в хорошем качестве, игры для пк, xbox, playstation без регистрации. У нас вы найдете новые Зарубежные сериалы и Русские сериалы 2013, 2014, 2015 годов. Оставайтесь с нами, качайте любимые фильмы, игры, сериалы, книги и музыку.