img image001 image001 image001 image001 image001 image001 image001 image001 image001 image001 image001 image001 image001 image001 image001

Planets Sun Sun Sun
Статистика раздачи
Автор: Nickolas3434 | Размер: 3.06 ГБ | Добавлен: 31 дек 2014
Раздают: 123    Качают: 13
Скачать торрент
Скачать торрент
Описание торрента

СообщениеДобавлено: 31 дек 2014 

Страна: Япония
Год выпуска: 2013 г.
Жанр: приключения, фантастика
Тип: TV
Продолжительность: 11 эп, ~25 мин. серия
Режиссер: Умэцу Ясуоми
Студия: A-1 Pictures Inc.


Озвучка:
женская одноголосая: Persona99
техподдержка: goodwing


Описание: В альтернативном мире начался новый ледниковый период, и даже солнечную Тоскану запорошило снегом. Но не это главная проблема трех сестер Феррари, которых в один прекрасный день попытались похитить. Старшая сестра Хадзуки, умерено пьющая 20-летняя студентка юрфака, и сама не поняла, как выкрутилась; средняя, 17-летняя Кадзуки, спокойная и нелюдимая спортсменка, просто врезала напавшему «с ноги», ну а младшая, 13-летняя Ходзуки, ухитрилась разобраться с боевым роботом, правда, мелким. Увы, похитители явились вновь и на этот раз озвучили японо-итальянскому трио, что ищут некое «сокровище Галилея», про которое сестры обязаны знать – все-таки прямые потомки великого ученого!
Слухи о наследстве «отца науки» встревожили корпорацию «Адни Мун», монополиста мировой энергетики. Большие боссы твердо решили прояснить вопрос: успевшие бежать сестры объявлены преступницами, против них брошены полиция и спецслужбы, по следу пущены опытные наемники. Что могут противопоставить такой силе бедные девушки? Во-первых, технический гений юной Ходзуки, достойной продолжательницы традиций мастера из Пизы. Во-вторых, знания и энергию примкнувшей к ним Анны Хендрикс, опытной авантюристки с тяжким случаем «галилеомании». Ну и, в-третьих, своеобразную дружбу с веселыми воздушными пиратами, которым сам черт не брат. Теперь-то «код Галилея» точно не устоит!
© Hollow, World Art
Данный сериал - часть известного блока передач Noitamina (ノイタミナ, Animation наоборот), транслировавшегося на телеканале Fuji TV после полуночи.
Donna по-итальянски женщина, так что название сериала можно понять как «Наследница Галилея». В японском языке существительные по числам не склоняются, потому авторы, возможно, имели в виду «наследницы».
Трех сестер Феррари называют «три луны», поскольку в имени каждой из них есть знак «цуки», означающий ночное светило.
Итальянский подзаголовок сериала "Storia di tre sorelle a caccia di un mistero" значит «История трех сестер на охоте за тайной».

Качество: HDTVRip
Тип релиза: Без хардсаба
Формат видео: AVI
Автор рипа:
Видео: 704x396, 23.976 fps, XviD ~ 1663 Kbps
Аудио: Русская / 2 ch / AC-3 / 48 kHz / 192 Kbps / RUS(int) [озвучка: Persona99]
Аудио 2: Японская / 2 ch / AC-3 / 48 kHz / 192 Kbps
Субтитры: *srt, *ass Язык субтитров русский Перевод песен: Asca Переводчик/Тайм-код/Оформление: Holydarkness Редактор: Nesitach Редактор: Stan WarHammer
Код:
Общее
Полное имя                               : C:UsersgoodwingвидеоанимеGalilei DonnaGalilei Donna - 01.avi
Формат                                   : AVI
Формат/Информация                        : Audio Video Interleave
Размер файла                             : 338 Мбайт
Продолжительность                        : 22 м.
Общий поток                              : 2061 Кбит/сек
Программа кодирования                    : VirtualDubModRus 1.5.10.2 (build 2542/release)
Библиотека кодирования                   : VirtualDubMod build 2542/release
Видео
Идентификатор                            : 0
Формат                                   : MPEG-4 Visual
Профиль формата                          : Advanced Simple@L5
Параметр BVOP формата                    : 2
Параметр QPel формата                    : Нет
Параметр GMC формата                     : Без точки перехода
Параметр матрицы формата                 : Default (H.263)
Идентификатор кодека                     : XVID
Идентификатор кодека/Подсказка           : XviD
Продолжительность                        : 22 м.
Битрейт                                  : 1663 Кбит/сек
Ширина                                   : 704 пикселя
Высота                                   : 396 пикселей
Соотношение сторон                       : 16:9
Частота кадров                           : 24,000 кадра/сек
Цветовое пространство                    : YUV
Субдискретизация насыщенности            : 4:2:0
Битовая глубина                          : 8 бит
Тип развёртки                            : Прогрессивная
Метод сжатия                             : С потерями
Бит/(Пиксели*Кадры)                      : 0.248
Размер потока                            : 273 Мбайт (81%)
Библиотека кодирования                   : XviD 64
Аудио #1
Идентификатор                            : 1
Формат                                   : AC-3
Формат/Информация                        : Audio Coding 3
Расширение режима                        : CM (complete main)
Параметр Endianness формата              : Big
Идентификатор кодека                     : 2000
Продолжительность                        : 22 м.
Вид битрейта                             : Постоянный
Битрейт                                  : 192 Кбит/сек
Каналы                                   : 2 канала
Расположение каналов                     : Front: L R
Частота                                  : 48,0 КГц
Битовая глубина                          : 16 бит
Метод сжатия                             : С потерями
Размер потока                            : 31,5 Мбайт (9%)
Выравнивание                             : Разделение по промежуткам
Продолжительность промежутка             : 42  мс. (1,00 видеокадр)
Время предзагрузки промежутка            : 500  мс.
Заголовок                                : Persona99
Аудио #2
Идентификатор                            : 2
Формат                                   : AC-3
Формат/Информация                        : Audio Coding 3
Расширение режима                        : CM (complete main)
Параметр Endianness формата              : Big
Идентификатор кодека                     : 2000
Продолжительность                        : 22 м.
Вид битрейта                             : Постоянный
Битрейт                                  : 192 Кбит/сек
Каналы                                   : 2 канала
Расположение каналов                     : Front: L R
Частота                                  : 48,0 КГц
Битовая глубина                          : 16 бит
Метод сжатия                             : С потерями
Размер потока                            : 31,5 Мбайт (9%)
Выравнивание                             : Разделение по промежуткам
Продолжительность промежутка             : 42  мс. (1,00 видеокадр)
Время предзагрузки промежутка            : 500  мс.
Заголовок                                : Japanese
 
01. ДНК Галилео
02. Мессье
03. Будни Золотой рыбки
04. Снежный дар
05. Мечты о звёздах
06. Наследие Галилео
07. Морская рыба
08. Япония
09. Приключения Золотой рыбки во времени (часть первая)
10. Приключения Золотой рыбки во времени (часть вторая)
11. Суд над Галилео

Сэмпл




   Похожие торренты   Торрент   Размер 
В этой теме нет новых непрочитанных сообщений. Девы Галилея / Galilei Donna [01x01] (2013) HDTV 720p | AniDuB

3 | 4

365.54 МБ

В этой теме нет новых непрочитанных сообщений. Donna Summer - Donna: The CD Collection [10 CD Box Set] (2014) FLAC

111 | 37

5.26 ГБ

В этой теме нет новых непрочитанных сообщений. Donna Summer - Donna: The CD Collection [10 CD Box Set] (2014) MP3

94 | 32

1.35 ГБ

В этой теме нет новых непрочитанных сообщений. Donna Summer - Donna Summer: [8 Albums Mini LP SHM-CD] (1975-1979) ALAC

114 | 27

3.57 ГБ

В этой теме нет новых непрочитанных сообщений. Ван-Пис / One Piece [601-700] (2013-2015) HDTVRip 720p | Persona99

4 | 27

40.22 ГБ

В этой теме нет новых непрочитанных сообщений. Заморозка 2 [ТВ] / Freezing Vibration [01-04] (2013) HDTVRip 720 | Persona99

2 | 12

2.17 ГБ

В этой теме нет новых непрочитанных сообщений. Легенда Араты / Arata Kangatari [TV] [01-12 из 12] (2013) HDTVRip | Persona99

1 | 3

3.77 ГБ




Вы не можете начинать темы
Вы не можете отвечать на сообщения
Вы не можете редактировать свои сообщения
Вы не можете удалять свои сообщения
Вы не можете добавлять вложения

Перейти:  
Для Мосгорсуда, Роскомнадзора и рекламодателей: mosgorsud-torrent[собачка]yandex.ru
 Вход
ppkBB3cker v.2 © 2008-2014 @ PPK
[ Time : 0.040s | 15 Queries | GZIP : On ]

Торрент трекер RUTOR.IN, Не можете зайти на rutor.org? Какой новый адрес рутор? Какое зеркало рутор? Не работает rutor.org и зеркала? Тогда наш торрент специально для вас. Rutor.in неофициальное зеркало rutor. В случае если у Вас заблокирован rutor или вдруг Вы не можете на него зайти, то Вы без труда сможете скачать бесплатно и без рекламы последние новинки кино, игр, сериалов и прочего у нас, на Rutor.in. Не нужно использовать прокси, чтобы зайти на рутор, достаточно воспользоваться нашим ресурсом. Все новые фильмы, игры, сериалы, книги и музыка за 2013 и 2014 годы через торрент бесплатно. Скачивайте фильмы в хорошем качестве, игры для пк, xbox, playstation без регистрации. У нас вы найдете новые Зарубежные сериалы и Русские сериалы 2013, 2014, 2015 годов. Оставайтесь с нами, качайте любимые фильмы, игры, сериалы, книги и музыку.