img image001 image001 image001 image001 image001 image001 image001 image001 image001 image001 image001 image001 image001 image001 image001

Planets Sun Sun Sun
Статистика раздачи
Автор: Nickolas3434 | Размер: 5.77 ГБ | Добавлен: 10 янв 2015
Раздают: 38    Качают: 8
Скачать торрент
Скачать торрент
Описание торрента

СообщениеДобавлено: 10 янв 2015 



#77
Большая панда и маленькая панда / Panda Kopanda / Panda! Go Panda!
Информация о фильме
    Русское название: Большая панда и маленькая панда
    Оригинальное название: Panda Kopanda / Panda! Go Panda!
    Год выхода: 1972
    Жанр: аниме, мультфильм, короткометражка, семейный
    Режиссер: Исао Такахата
    Выпущено: Япония
    Продолжительность: 00:33:31
    Перевод: Профессиональный (Многоголосый закадровый), Авторский (А.Толстобров)


Сюжет фильма
    У девочки Мимико нет ни папы, ни мамы, и о ней заботится только ее бабушка. На момент начала сюжета бабушка надолго уезжает, оставив внучку одну. Сама Мимико относится к этому легко, так как вполне способна взять домашнее хозяйство на себя. Однако, сразу после отъезда бабушки, Мимико встречает панду по имени Папанда и его сына, Пана. Узнав о том что Мимико — сирота, Папанда решает её удочерить. Мимико в свою очередь становится мамой Пана.


Файл
    Качество: BDRip 1080p (исходник Blu-ray Disc Remux)
    Видео: 1430x1080, 11350 Кбит/сек, 23,976 кадр/сек, AVC, x264, High@L4.1, 4:3, 0.307 Бит/[Пиксели*Кадры]
    Аудио 1: AC-3, 112 Кбит/сек, 1 канала(ов), 48,0 КГц - Многоголосый закадровый, RUSCICO / Русский
    Аудио 2: AC-3, 256 Кбит/сек, 2 канала(ов), 48,0 КГц - Одноголосый закадровый, А. Толстобров / Русский
    Аудио 3: AC-3, 448 Кбит/сек, 1 канала(ов), 48,0 КГц - Оригинал / Японский
    Субтитры: Русские | Полные, Английские | Полные
    Форсированные субтитры: Нет
    Чаптеры (Главы): Есть



Автор Рипа: Сообщество:



Format : Matroska
Format version : Version 2
File size : 2.85 GiB
Duration : 33mn 31s
Overall bit rate : 12.2 Mbps
Movie name : Большая панда и маленькая панда.(1972).BDRip.1080p.[envy]
Encoded date : UTC 2015-01-02 19:35:31
Writing application : mkvmerge v5.8.0 ('No Sleep / Pillow') built on Sep 2 2012 15:37:04
Writing library : libebml v1.2.3 + libmatroska v1.3.0
Video
ID : 1
Format : AVC
Format/Info : Advanced Video Codec
Format profile : High@L4.1
Format settings, CABAC : Yes
Format settings, ReFrames : 4 frames
Codec ID : V_MPEG4/ISO/AVC
Duration : 33mn 31s
Bit rate : 11.4 Mbps
Width : 1 430 pixels
Height : 1 080 pixels
Display aspect ratio : 4:3
Frame rate mode : Constant
Frame rate : 23.976 fps
Color space : YUV
Chroma subsampling : 4:2:0
Bit depth : 8 bits
Scan type : Progressive
Bits/(Pixel*Frame) : 0.307
Stream size : 2.60 GiB (91%)
Title : Большая панда и маленькая панда.(1972).BDRip.1080p.[envy]
Writing library : x264 core 144 r2525 40bb568
Encoding settings : cabac=1 / ref=4 / deblock=1:0:0 / analyse=0x3:0x113 / me=umh / subme=11 / psy=1 / psy_rd=1.00:0.00 / mixed_ref=1 / me_range=48 / chroma_me=1 / trellis=2 / 8x8dct=1 / cqm=0 / deadzone=21,11 / fast_pskip=0 / chroma_qp_offset=-2 / threads=12 / lookahead_threads=1 / sliced_threads=0 / nr=0 / decimate=1 / interlaced=0 / bluray_compat=0 / constrained_intra=0 / bframes=5 / b_pyramid=2 / b_adapt=2 / b_bias=0 / direct=3 / weightb=1 / open_gop=0 / weightp=2 / keyint=240 / keyint_min=23 / scenecut=40 / intra_refresh=0 / rc=2pass / mbtree=0 / bitrate=11350 / ratetol=2.0 / qcomp=0.60 / qpmin=0 / qpmax=69 / qpstep=4 / cplxblur=20.0 / qblur=0.5 / ip_ratio=1.40 / pb_ratio=1.30 / aq=2:1.00
Language : Japanese
Default : Yes
Forced : No
Audio #1
ID : 2
Format : AC-3
Format/Info : Audio Coding 3
Mode extension : CM (complete main)
Format settings, Endianness : Big
Codec ID : A_AC3
Duration : 33mn 31s
Bit rate mode : Constant
Bit rate : 112 Kbps
Channel(s) : 1 channel
Channel positions : Front: C
Sampling rate : 48.0 KHz
Bit depth : 16 bits
Compression mode : Lossy
Stream size : 26.9 MiB (1%)
Title : MVO RUSCICO
Language : Russian
Default : Yes
Forced : No
Audio #2
ID : 3
Format : AC-3
Format/Info : Audio Coding 3
Mode extension : CM (complete main)
Format settings, Endianness : Big
Codec ID : A_AC3
Duration : 33mn 31s
Bit rate mode : Constant
Bit rate : 256 Kbps
Channel(s) : 2 channels
Channel positions : Front: L R
Sampling rate : 48.0 KHz
Bit depth : 16 bits
Compression mode : Lossy
Stream size : 61.4 MiB (2%)
Title : Tolstobrov
Language : Russian
Default : No
Forced : No
Audio #3
ID : 4
Format : AC-3
Format/Info : Audio Coding 3
Mode extension : CM (complete main)
Format settings, Endianness : Big
Codec ID : A_AC3
Duration : 33mn 31s
Bit rate mode : Constant
Bit rate : 448 Kbps
Channel(s) : 1 channel
Channel positions : Front: C
Sampling rate : 48.0 KHz
Bit depth : 16 bits
Compression mode : Lossy
Stream size : 107 MiB (4%)
Title : Jpn
Language : Japanese
Default : No
Forced : No
Text #1
ID : 5
Format : UTF-8
Codec ID : S_TEXT/UTF8
Codec ID/Info : UTF-8 Plain Text
Title : full
Language : Russian
Default : No
Forced : No
Text #2
ID : 6
Format : UTF-8
Codec ID : S_TEXT/UTF8
Codec ID/Info : UTF-8 Plain Text
Title : full
Language : English
Default : No
Forced : No
Menu
00:00:00.000 : en:00:00:00.000
00:02:08.795 : en:00:02:08.795
00:14:25.031 : en:00:14:25.031
00:21:37.338 : en:00:21:37.338
00:31:44.694 : en:00:31:44.694


Большая панда и маленькая панда: Дождливый день в цирке / Panda Kopanda: Amefuri Circus no Maki / Panda! Go Panda!: Rainy Day Circus
Информация о фильме
    Русское название: Большая панда и маленькая панда: Дождливый день в цирке
    Оригинальное название: Panda Kopanda: Amefuri Circus no Maki / Panda! Go Panda!: Rainy Day Circus
    Год выхода: 1973
    Жанр: аниме, мультфильм, короткометражка, семейный
    Режиссер: Исао Такахата
    Выпущено: Япония
    Продолжительность: 00:38:08
    Перевод: Профессиональный (Многоголосый закадровый), Авторский (А.Толстобров)


Сюжет фильма
    Проводив бабушку в длительную поездку в Нагасаки, Мимико осталась совсем одна — родителей у нее не было. Каково же было ее удивление, когда вернувшись домой с вокзала, Мимико обнаружила у себя дома двух панд — отца и сына. Девочка очень обрадовалась неожиданным гостям. Узнав, что у Мими нет родителей, папа-панда решает заменить девочке отца, мотивируя это тем, что он и так уже отец и знает как это делается.


Файл
    Качество: BDRip 1080p (исходник Blu-ray Disc Remux)
    Видео: 1434x1080, 10140 Кбит/сек, 23,976 кадр/сек, AVC, x264, High@L4.1, 4:3, 0.273 Бит/[Пиксели*Кадры]
    Аудио 1: AC-3, 112 Кбит/сек, 1 канала(ов), 48,0 КГц - Многоголосый закадровый, RUSCICO / Русский
    Аудио 2: AC-3, 256 Кбит/сек, 2 канала(ов), 48,0 КГц - Одноголосый закадровый, А. Толстобров / Русский
    Аудио 3: AC-3, 448 Кбит/сек, 1 канала(ов), 48,0 КГц - Оригинал / Японский
    Субтитры: Русские | Полные, Английские | Полные
    Форсированные субтитры: Нет
    Чаптеры (Главы): Есть



Автор Рипа: Сообщество:



Format : Matroska
Format version : Version 2
File size : 2.92 GiB
Duration : 38mn 8s
Overall bit rate : 11.0 Mbps
Movie name : Большая панда и маленькая панда:Дождливый день в цирке.(1973).BDRip.1080p.[envy]
Encoded date : UTC 2015-01-02 19:36:47
Writing application : mkvmerge v5.8.0 ('No Sleep / Pillow') built on Sep 2 2012 15:37:04
Writing library : libebml v1.2.3 + libmatroska v1.3.0
Video
ID : 1
Format : AVC
Format/Info : Advanced Video Codec
Format profile : High@L4.1
Format settings, CABAC : Yes
Format settings, ReFrames : 4 frames
Codec ID : V_MPEG4/ISO/AVC
Duration : 38mn 8s
Bit rate : 10.1 Mbps
Width : 1 434 pixels
Height : 1 080 pixels
Display aspect ratio : 4:3
Frame rate mode : Constant
Frame rate : 23.976 fps
Color space : YUV
Chroma subsampling : 4:2:0
Bit depth : 8 bits
Scan type : Progressive
Bits/(Pixel*Frame) : 0.273
Stream size : 2.65 GiB (91%)
Title : Большая панда и маленькая панда:Дождливый день в цирке.(1973).BDRip.1080p.[envy]
Writing library : x264 core 144 r2525 40bb568
Encoding settings : cabac=1 / ref=4 / deblock=1:0:0 / analyse=0x3:0x113 / me=umh / subme=11 / psy=1 / psy_rd=1.00:0.00 / mixed_ref=1 / me_range=48 / chroma_me=1 / trellis=2 / 8x8dct=1 / cqm=0 / deadzone=21,11 / fast_pskip=0 / chroma_qp_offset=-2 / threads=12 / lookahead_threads=1 / sliced_threads=0 / nr=0 / decimate=1 / interlaced=0 / bluray_compat=0 / constrained_intra=0 / bframes=5 / b_pyramid=2 / b_adapt=2 / b_bias=0 / direct=3 / weightb=1 / open_gop=0 / weightp=2 / keyint=240 / keyint_min=23 / scenecut=40 / intra_refresh=0 / rc=2pass / mbtree=0 / bitrate=10140 / ratetol=2.0 / qcomp=0.60 / qpmin=0 / qpmax=69 / qpstep=4 / cplxblur=20.0 / qblur=0.5 / ip_ratio=1.40 / pb_ratio=1.30 / aq=2:1.00
Language : Japanese
Default : Yes
Forced : No
Audio #1
ID : 2
Format : AC-3
Format/Info : Audio Coding 3
Mode extension : CM (complete main)
Format settings, Endianness : Big
Codec ID : A_AC3
Duration : 38mn 8s
Bit rate mode : Constant
Bit rate : 112 Kbps
Channel(s) : 1 channel
Channel positions : Front: C
Sampling rate : 48.0 KHz
Bit depth : 16 bits
Compression mode : Lossy
Stream size : 30.6 MiB (1%)
Title : MVO RUSCICO
Language : Russian
Default : Yes
Forced : No
Audio #2
ID : 3
Format : AC-3
Format/Info : Audio Coding 3
Mode extension : CM (complete main)
Format settings, Endianness : Big
Codec ID : A_AC3
Duration : 38mn 8s
Bit rate mode : Constant
Bit rate : 256 Kbps
Channel(s) : 2 channels
Channel positions : Front: L R
Sampling rate : 48.0 KHz
Bit depth : 16 bits
Compression mode : Lossy
Stream size : 69.8 MiB (2%)
Title : Tolstobrov
Language : Russian
Default : No
Forced : No
Audio #3
ID : 4
Format : AC-3
Format/Info : Audio Coding 3
Mode extension : CM (complete main)
Format settings, Endianness : Big
Codec ID : A_AC3
Duration : 38mn 8s
Bit rate mode : Constant
Bit rate : 448 Kbps
Channel(s) : 1 channel
Channel positions : Front: C
Sampling rate : 48.0 KHz
Bit depth : 16 bits
Compression mode : Lossy
Stream size : 122 MiB (4%)
Title : Jpn
Language : Japanese
Default : No
Forced : No
Text #1
ID : 5
Format : UTF-8
Codec ID : S_TEXT/UTF8
Codec ID/Info : UTF-8 Plain Text
Title : full
Language : Russian
Default : No
Forced : No
Text #2
ID : 6
Format : UTF-8
Codec ID : S_TEXT/UTF8
Codec ID/Info : UTF-8 Plain Text
Title : full
Language : English
Default : No
Forced : No
Menu
00:00:00.000 : en:00:33:31.593
00:02:09.379 : en:00:35:40.972
00:11:44.454 : en:00:45:16.047
00:23:23.277 : en:00:56:54.870


#77



   Похожие торренты   Торрент   Размер 
В этой теме нет новых непрочитанных сообщений. Большая панда и маленькая панда: Дождливый день в цирке / Panda Kopanda / Panda! Go Panda! (1972) BDRip 1080p | Hi10p | P, A1

13 | 2

3.1 ГБ

В этой теме нет новых непрочитанных сообщений. Большая панда и маленькая панда: Дождливый день в цирке / Panda Kopanda / Panda! Go Panda! (1972) BDRip 720p | Hi10p | P, A1

11 | 3

2.37 ГБ

В этой теме нет новых непрочитанных сообщений. Большая панда и маленькая панда: Дождливый день в цирке / Panda Kopanda (1972) DVDRip

186 | 8

698.88 МБ

В этой теме нет новых непрочитанных сообщений. Кунг-фу Панда 3 / Kung Fu Panda 3 (2016) BDRip 1080p от NNNB | Лицензия

436 | 46

5.75 ГБ

В этой теме нет новых непрочитанных сообщений. Кунг-фу Панда 3 / Kung Fu Panda 3 (2016) BDRip 720p от NNNB | 60 fps | Лицензия

280 | 25

3.92 ГБ

В этой теме нет новых непрочитанных сообщений. Смелый большой панда / Little Big Panda (2011) BDRip 1080p

9 | 2

4.37 ГБ

В этой теме нет новых непрочитанных сообщений. Кунг-фу Панда 2 / Kung Fu Panda 2 (2011) BDRip 1080p

928 | 46

4.37 ГБ




Вы не можете начинать темы
Вы не можете отвечать на сообщения
Вы не можете редактировать свои сообщения
Вы не можете удалять свои сообщения
Вы не можете добавлять вложения

Перейти:  
Для Мосгорсуда, Роскомнадзора и рекламодателей: mosgorsud-torrent[собачка]yandex.ru
 Вход
ppkBB3cker v.2 © 2008-2014 @ PPK
[ Time : 0.098s | 15 Queries | GZIP : Off ]

Торрент трекер RUTOR.IN, Не можете зайти на rutor.org? Какой новый адрес рутор? Какое зеркало рутор? Не работает rutor.org и зеркала? Тогда наш торрент специально для вас. Rutor.in неофициальное зеркало rutor. В случае если у Вас заблокирован rutor или вдруг Вы не можете на него зайти, то Вы без труда сможете скачать бесплатно и без рекламы последние новинки кино, игр, сериалов и прочего у нас, на Rutor.in. Не нужно использовать прокси, чтобы зайти на рутор, достаточно воспользоваться нашим ресурсом. Все новые фильмы, игры, сериалы, книги и музыка за 2013 и 2014 годы через торрент бесплатно. Скачивайте фильмы в хорошем качестве, игры для пк, xbox, playstation без регистрации. У нас вы найдете новые Зарубежные сериалы и Русские сериалы 2013, 2014, 2015 годов. Оставайтесь с нами, качайте любимые фильмы, игры, сериалы, книги и музыку.