img image001 image001 image001 image001 image001 image001 image001 image001 image001 image001 image001 image001 image001 image001 image001

Planets Sun Sun Sun
Статистика раздачи
Автор: Nickolas3434 | Размер: 8.72 ГБ | Добавлен: 13 янв 2015
Раздают: 41    Качают: 7
Скачать торрент
Скачать торрент
Описание торрента

СообщениеДобавлено: 13 янв 2015 

Информация о фильме
Название: Космический крейсер Ямато (фильм первый) / Космический линкор Ямато
Оригинальное название: Space Battleship Yamato: The Movie / Uchuu Senkan Yamato (Gekijouban) / 宇宙戦艦ヤマト
Страна: Япония
Год выхода: 1977
Жанр: приключения, фантастика, драма
Режиссер: Масуда Тосио / Masuda Toshio / 舛田利雄
Автор оригинала: Мацумото Лэйдзи / Matsumoto Leiji / 松本零士
О фильме: В 2199 году Земля подверглась атаке злобных инопланетян с планеты Гамилус. Радиоактивные бомбардировки вынудили выживших землян укрыться в подземных городах, но радиация проникает и туда. Космический флот Земли уничтожен. Неожиданно приходит послание с находящейся на расстоянии 148000 световых лет планеты Искандар. В послании — чертежи сверхсветового двигателя и предложение дать землянам устройство, которое может очистить Землю от радиации. Потопленный во время Второй Мировой войны японский суперлинкор «Ямато» переделывают в космический корабль, который отправляется в невероятное путешествие. До гибели человечества от радиации остаётся 365 дней. Обратный отсчёт включён...
Продолжительность: полнометражный фильм, 02:15:26
Перевод: Любительский (одноголосый)
Озвучка: loster01
Субтитры: русские, полные (*srt, внешние)
Хардсаб: отсутствует
Перевод на русский: Targon
Файл
Качество: BDRip [loster01]
Формат: MKV
Видео: 960 x 720 (4:3) at 23.976 fps, AVC (x264), High@L3.1, 8442 Kbps avg, 0.509 bit/pixel, 8 bit
Аудио #1: RUS - 48 kHz, AC3, 2 ch, ~384 kbps
Аудио #2: JAP - 48 kHz, AC3, 2 ch, ~384 kbps
Релиз от:
Общее
Полное имя : [LE-Production]_Uchuu_Senkan_Yamato_[Movie_1]_[BDRip]_[rus_jap_sub]_[960x720_x264]_[loster01][LE-Production]_Uchuu_Senkan_Yamato_[Movie_1]_[BDRip]_[rus_jap_sub]_[960x720_x264]_[loster01].mkv
Формат : Matroska
Размер файла : 8,72 Гбайт
Продолжительность : 2 ч. 15 м.
Общий поток : 9212 Кбит/сек
Название фильма : LE-Production
Дата кодирования : UTC 2014-12-10 12:25:36
Программа кодирования : mkvmerge v7.3.0 ('Nouages') 64bit built on Oct 22 2014 18:53:34
Библиотека кодирования : libebml v1.3.0 + libmatroska v1.4.1
Видео
Идентификатор : 1
Формат : AVC
Формат/Информация : Advanced Video Codec
Профиль формата : High@L3.1
Параметр CABAC формата : Да
Параметр ReFrames формата : 4 кадры
Идентификатор кодека : V_MPEG4/ISO/AVC
Продолжительность : 2 ч. 15 м.
Битрейт : 8442 Кбит/сек
Ширина : 960 пикс.
Высота : 720 пикс.
Соотношение сторон : 4:3
Частота кадров : 23,976 кадр/сек
Цветовое пространство : YUV
Подвыборка цветности : 4:2:0
Битовая глубина : 8 бит
Тип развёртки : Прогрессивная
Бит/(Пиксели*Кадры) : 0.509
Размер потока : 7,82 Гбайт (90%)
Заголовок : LE-Production
Библиотека кодирования : x264 core 130 r2273 b3065e6
Настройки программы : cabac=1 / ref=1 / deblock=1:-1:-1 / analyse=0x3:0x3 / me=dia / subme=1 / psy=1 / psy_rd=1.00:0.10 / mixed_ref=0 / me_range=16 / chroma_me=1 / trellis=0 / 8x8dct=1 / cqm=0 / deadzone=21,11 / fast_pskip=1 / chroma_qp_offset=0 / threads=12 / lookahead_threads=2 / sliced_threads=0 / nr=0 / decimate=1 / interlaced=0 / bluray_compat=0 / constrained_intra=0 / bframes=3 / b_pyramid=2 / b_adapt=1 / b_bias=0 / direct=3 / weightb=1 / open_gop=0 / weightp=1 / keyint=250 / keyint_min=23 / scenecut=40 / intra_refresh=0 / rc=2pass / mbtree=0 / bitrate=8442 / ratetol=1.0 / qcomp=0.60 / qpmin=0 / qpmax=69 / qpstep=4 / cplxblur=20.0 / qblur=0.5 / ip_ratio=1.40 / pb_ratio=1.30 / aq=1:1.00
Язык : Japanese
Аудио #1
Идентификатор : 2
Формат : AC-3
Формат/Информация : Audio Coding 3
Расширение режима : CM (complete main)
Идентификатор кодека : A_AC3
Продолжительность : 2 ч. 15 м.
Вид битрейта : Постоянный
Битрейт : 384 Кбит/сек
Канал(ы) : 2 канала(ов)
Расположение каналов : Front: L R
Частота : 48,0 КГц
Битовая глубина : 16 бит
Метод сжатия : С потерями
Размер потока : 372 Мбайт (4%)
Заголовок : LE-Production (loster01)
Язык : Russian
Аудио #2
Идентификатор : 3
Формат : AC-3
Формат/Информация : Audio Coding 3
Расширение режима : CM (complete main)
Идентификатор кодека : A_AC3
Продолжительность : 2 ч. 15 м.
Вид битрейта : Постоянный
Битрейт : 384 Кбит/сек
Канал(ы) : 2 канала(ов)
Расположение каналов : Front: L R
Частота : 48,0 КГц
Битовая глубина : 16 бит
Метод сжатия : С потерями
Размер потока : 372 Мбайт (4%)
Язык : Japanese




   Похожие торренты   Торрент   Размер 
В этой теме нет новых непрочитанных сообщений. Космический крейсер Ямато / Space Battleship Yamato (2010) DVDRip

18 | 5

1.27 ГБ

В этой теме нет новых непрочитанных сообщений. Космический крейсер Ямато [ТВ-1] / Space Cruiser Yamato / Uchuu Senkan Yamato [TV-1] [26 из 26] (2014) BDRip 720p | LE-Production

15 | 2

13.08 ГБ

В этой теме нет новых непрочитанных сообщений. 2199: Космическая одиссея / Космический линкор Ямато / Space Battleship Yamato (2010) BDRip 720p от HQCLUB

5 | 2

9.53 ГБ

В этой теме нет новых непрочитанных сообщений. 2199: Космическая одиссея / Космический линкор Ямато / Space Battleship Yamato (2010) BDRip от HQCLUB

43 | 3

2.18 ГБ

В этой теме нет новых непрочитанных сообщений. 2199: Космическая одиссея / Космический линкор Ямато / Space Battleship Yamato (2010) BDRip-AVC от HQCLUB

4 | 3

2.83 ГБ

В этой теме нет новых непрочитанных сообщений. Космический крейсер Ямато 2199 OVA / Uchuu Senkan Yamato 2199 [01-26 из 26] (2012-2013) BDRip 720p | L2, L1

68 | 16

15.77 ГБ

В этой теме нет новых непрочитанных сообщений. Космический крейсер Ямато 2199 / Uchuu Senkan Yamato 2199 [01-26 из 26] (2012-2013) BDRip 1080p | L1

63 | 74

44.83 ГБ




Вы не можете начинать темы
Вы не можете отвечать на сообщения
Вы не можете редактировать свои сообщения
Вы не можете удалять свои сообщения
Вы не можете добавлять вложения

Перейти:  
Для Мосгорсуда, Роскомнадзора и рекламодателей: mosgorsud-torrent[собачка]yandex.ru
 Вход
ppkBB3cker v.2 © 2008-2014 @ PPK
[ Time : 0.035s | 15 Queries | GZIP : Off ]

Торрент трекер RUTOR.IN, Не можете зайти на rutor.org? Какой новый адрес рутор? Какое зеркало рутор? Не работает rutor.org и зеркала? Тогда наш торрент специально для вас. Rutor.in неофициальное зеркало rutor. В случае если у Вас заблокирован rutor или вдруг Вы не можете на него зайти, то Вы без труда сможете скачать бесплатно и без рекламы последние новинки кино, игр, сериалов и прочего у нас, на Rutor.in. Не нужно использовать прокси, чтобы зайти на рутор, достаточно воспользоваться нашим ресурсом. Все новые фильмы, игры, сериалы, книги и музыка за 2013 и 2014 годы через торрент бесплатно. Скачивайте фильмы в хорошем качестве, игры для пк, xbox, playstation без регистрации. У нас вы найдете новые Зарубежные сериалы и Русские сериалы 2013, 2014, 2015 годов. Оставайтесь с нами, качайте любимые фильмы, игры, сериалы, книги и музыку.