img image001 image001 image001 image001 image001 image001 image001 image001 image001 image001 image001 image001 image001 image001 image001

Planets Sun Sun Sun
Статистика раздачи
Автор: Nickolas3434 | Размер: 2.5 ГБ | Добавлен: 13 янв 2015
Раздают: 297    Качают: 22
Скачать торрент
Скачать торрент
Описание торрента

СообщениеДобавлено: 13 янв 2015 

Информация о фильме
Название: Рыцари Зодиака: Легенда о святилище
Оригинальное название: Seinto Seiya: Legend of Sanctuary
Год выхода: 2014
Жанр: приключения, фэнтези
Режиссер: Сато Кэйити
В ролях: Каито Исикава, Kenji Akabane, Кэнсё Оно, Нобухико Окамото, Кэндзи Нодзима, Гоу Иноэ, Рикия Кояма, Синдзи Кавада, Мицуаки Мадоно, Намикава Дайсукэ ...
О фильме:
Простая девушка из не бедной семьи по имени Саори в день своего шестнадцатилетия узнаёт, что она воплощение богини Афины. Злые дядьки хотят её замочить, потому что она может им обломать всю малину. Но молодые парнишки, которых воспитывал дедушка Саори встают на её защиту. Они обладают силой "космо" и зовутся Рыцарями Зодиака! Не лёгкий путь им предстоит пройти через 12 домов Золотых рыцарей, чтобы доказать, что эта Афина настоящая, а та, что у злодеев - нет! Вот такая замануха!

Официальный сайт
Страна: Япония
Студия: Toei Animation
Продолжительность: 01:32:38
Перевод: Русский от Cuba77(многоголосый/закадровый)
Файл
Качество: BDRip
Тип релиза: Без хардсаба
Формат видео: MP4
Кодек: x264 - [8bit]
Видео: 1280x536, ~3600 Кбит/сек, 23,976 кадра/сек
Аудио: AAC, ~192 Кбит/сек, 48 КГц, 2CH, STEREO Язык Русский (озвучка от Студийная Банда AD) ;
General
Complete name : E:Anime FilmSaint Seiya Legend of Sanctuary [720p].mp4
Format : MPEG-4
Format profile : Base Media
Codec ID : isom
File size : 2.50 GiB
Duration : 1h 32mn
Overall bit rate mode : Variable
Overall bit rate : 3 863 Kbps
Encoded date : UTC 2015-01-01 15:35:41
Tagged date : UTC 2015-01-01 15:35:41
Writing application : Yamb 2.1.0.0 [http://yamb.unite-video.com]
Video
ID : 2
Format : AVC
Format/Info : Advanced Video Codec
Format profile : High@L3.1
Format settings, CABAC : Yes
Format settings, ReFrames : 4 frames
Codec ID : avc1
Codec ID/Info : Advanced Video Coding
Duration : 1h 32mn
Bit rate : 3 697 Kbps
Maximum bit rate : 40.3 Mbps
Width : 1 280 pixels
Height : 536 pixels
Display aspect ratio : 2.40:1
Frame rate mode : Constant
Frame rate : 23.976 fps
Color space : YUV
Chroma subsampling : 4:2:0
Bit depth : 8 bits
Scan type : Progressive
Bits/(Pixel*Frame) : 0.225
Stream size : 2.39 GiB (96%)
Title : AniDub
Writing library : x264 core 125 r2208 d9d2288
Encoding settings : cabac=1 / ref=4 / deblock=1:-1:1 / analyse=0x3:0x133 / me=esa / subme=10 / psy=1 / psy_rd=0.40:0.00 / mixed_ref=1 / me_range=16 / chroma_me=1 / trellis=2 / 8x8dct=1 / cqm=0 / deadzone=21,11 / fast_pskip=1 / chroma_qp_offset=-2 / threads=12 / lookahead_threads=2 / sliced_threads=0 / nr=0 / decimate=1 / interlaced=0 / bluray_compat=0 / constrained_intra=0 / bframes=10 / b_pyramid=2 / b_adapt=2 / b_bias=0 / direct=3 / weightb=1 / open_gop=0 / weightp=2 / keyint=250 / keyint_min=23 / scenecut=40 / intra_refresh=0 / rc_lookahead=60 / rc=crf / mbtree=1 / crf=15.0 / qcomp=0.60 / qpmin=0 / qpmax=69 / qpstep=4 / ip_ratio=1.40 / aq=1:0.60
Encoded date : UTC 2015-01-01 15:35:58
Tagged date : UTC 2015-01-01 15:36:40
Matrix coefficients : BT.709-5, BT.1361, IEC 61966-2-4 709, SMPTE RP177
Audio
ID : 1
Format : AAC
Format/Info : Advanced Audio Codec
Format profile : LC
Codec ID : 40
Duration : 1h 32mn
Bit rate mode : Variable
Bit rate : 163 Kbps
Maximum bit rate : 246 Kbps
Channel(s) : 2 channels
Channel positions : Front: L R
Sampling rate : 48.0 KHz
Compression mode : Lossy
Stream size : 108 MiB (4%)
Language : Russian
Encoded date : UTC 2015-01-01 15:35:41
Tagged date : UTC 2015-01-01 15:36:40



Релиз от:



   Похожие торренты   Торрент   Размер 
В этой теме нет новых непрочитанных сообщений. Рыцари Зодиака: Легенда о святилище / Saint Seiya: Legend of Sanctuary (2014) BDRemux | AniDUB

59 | 4

23.81 ГБ

В этой теме нет новых непрочитанных сообщений. Рыцари Зодиака [ТВ-2] / Saint Seiya Omega [TV-2] [01-51 из 51] (2012) HDTVRip 720p | AniFilm

4 | 4

16.63 ГБ

В этой теме нет новых непрочитанных сообщений. Рыцари Зодиака [ТВ-2] / Saint Seiya Omega [TV-2] [01-51 из 51] (2012) HDTVRip от AniFilm

4 | 2

14.86 ГБ

В этой теме нет новых непрочитанных сообщений. Легенда о Костоломе / Легенда о Костяном Драконе / Легенда о Костобое / Legend of the Boneknapper Dragon (2010) BDRip от HQCLUB

20 | 33

451.83 МБ

В этой теме нет новых непрочитанных сообщений. Феи: Легенда о чудовище / Legend of the NeverBeast (2014) BDRip 720p | iTunes

124 | 4

4.18 ГБ

В этой теме нет новых непрочитанных сообщений. Феи: Легенда о чудовище / Legend of the NeverBeast (2014) BDRip 720p | Лицензия

448 | 14

4.32 ГБ

В этой теме нет новых непрочитанных сообщений. Аватар: Легенда о Корре / The Last Airbender: The Legend of Korra [S01-04] (2012-2014) BDRip 720p | D

107 | 174

27.71 ГБ




Вы не можете начинать темы
Вы не можете отвечать на сообщения
Вы не можете редактировать свои сообщения
Вы не можете удалять свои сообщения
Вы не можете добавлять вложения

Перейти:  
Для Мосгорсуда, Роскомнадзора и рекламодателей: mosgorsud-torrent[собачка]yandex.ru
 Вход
ppkBB3cker v.2 © 2008-2014 @ PPK
[ Time : 0.048s | 16 Queries | GZIP : Off ]

cron