img image001 image001 image001 image001 image001 image001 image001 image001 image001 image001 image001 image001 image001 image001 image001

Planets Sun Sun Sun
Статистика раздачи
Автор: Nickolas3434 | Размер: 1.86 ГБ | Добавлен: 13 янв 2015, 07:00
Раздают: 1851    Качают: 93
Скачать торрент
Скачать торрент
Описание торрента

СообщениеДобавлено: 13 янв 2015, 07:00 

Информация о фильме
Название: Изгнанные из Рая
Оригинальное название:

Год выхода: 2014
Жанр: приключения
Режиссер: Мидзусима Сэйдзи
В главных ролях: Риэ Кугимия, Мики Синъитиро ...

О фильме:
Далекое будущее. Человечество, пережившее «наночуму», в большинстве своём, отринув свои бренные тела, переселилось в виртуальный мир под названием «Дива». На первый взгляд может показаться, что человечество наконец обрело настоящий рай. Но на поверку выходит всё не так радужно. Объём памяти Дивы, который делится на всех живущих в ней, ограничен. Всех паразитов общества и нарушителей спокойствия сажают в архив, виртуальную тюрьму, а их память освобождают. Потому все жители только и занимаются тем, что стараются доказать свою полезность всеми возможными способами. Ведь, чем больше ты полезен для общества, тем больше памяти тебе выделяют и тем бо́льшую свободу ты обретаешь. И вот одна из таких «работяг», Анжела Бальзак из Службы Безопасности, получает своё очередное задание — выследить в реальном мире некого Первопроходца, хакера, который уже множество раз подвергал Диву взлому. А в качестве поддержки Анжела получает меху последней модели и Зарика Кадживару, напарника-проводника из числа людей, оставшихся жить в реальном мире.



Официальный сайт

Страна: Япония
Студия:

Продолжительность: 01:43:38
Перевод: от Cylowatt, Infernat, Nikrofill [Anibread] (любительский двухголосный)

Файл
Качество: BDRip
Тип релиза: Без хардсаба
Формат видео: MP4
Кодек: AVC - [8bit]
Видео: 1280x720, ~2300 Кбит/сек, 23,976 кадра/сек
Аудио: AC3, 224 Кбит/сек, 48 КГц, 2CH, STEREO Язык Русский (Озвучивание: двухголосое (муж./жен.) [Dark_Demon & Miori]) ;

General
Complete name : E:Anime FilmRakuen Tsuihou Expelled from Paradise .mp4
Format : MPEG-4
Format profile : Base Media
Codec ID : isom
File size : 1.86 GiB
Duration : 1h 43mn
Overall bit rate : 2 565 Kbps
Movie name : Rakuen Tsuihou Expelled from Paradise
Encoded date : UTC 2015-01-11 00:06:17
Tagged date : UTC 2015-01-11 00:11:26
Writing application : MkvToMp4 [www.mkvtomp4.ru] version: 0.224 (x64)
hdvd : 1
stik : 0
Video
ID : 1
Format : AVC
Format/Info : Advanced Video Codec
Format profile : High@L4.0
Format settings, CABAC : Yes
Format settings, ReFrames : 6 frames
Codec ID : avc1
Codec ID/Info : Advanced Video Coding
Duration : 1h 43mn
Bit rate : 2 337 Kbps
Maximum bit rate : 21.8 Mbps
Width : 1 280 pixels
Height : 720 pixels
Display aspect ratio : 16:9
Frame rate mode : Constant
Frame rate : 23.976 fps
Color space : YUV
Chroma subsampling : 4:2:0
Bit depth : 8 bits
Scan type : Progressive
Bits/(Pixel*Frame) : 0.106
Stream size : 1.69 GiB (91%)
Language : English
Encoded date : UTC 2015-01-11 00:06:17
Tagged date : UTC 2015-01-11 00:08:43
Audio
ID : 2
Format : AC-3
Format/Info : Audio Coding 3
Mode extension : CM (complete main)
Codec ID : ac-3
Duration : 1h 43mn
Bit rate mode : Constant
Bit rate : 224 Kbps
Channel(s) : 2 channels
Channel positions : Front: L R
Sampling rate : 48.0 KHz
Bit depth : 16 bits
Compression mode : Lossy
Stream size : 166 MiB (9%)
Language : English
Encoded date : UTC 2015-01-11 00:08:21
Tagged date : UTC 2015-01-11 00:08:43


Релиз от: название или логотип релиз-группы/ресурса/рипера



   Похожие торренты   Торрент   Размер 
В этой теме нет новых непрочитанных сообщений. Изгнанные из Рая / Rakuen Tsuihou / Expelled from Paradise (2014) BDRip 720p | Sub

202 | 7

2.14 ГБ

В этой теме нет новых непрочитанных сообщений. Исключённый / Expelled (2014) WEB-DLRip | L1

1224 | 79

1.39 ГБ

В этой теме нет новых непрочитанных сообщений. Изгнанные дьяволом / The Devil's Rejects (2005) BDRip 720p от Leonardo and Scarabey | Лицензия

3 | 5

11.73 ГБ

В этой теме нет новых непрочитанных сообщений. Дом 1000 трупов 2: Изгнанные дьяволом [Расширенная версия] / The Devil's Rejects [Unrated] (2005) BDRip 720p от NOLIMITS-TEAM

1 | 8

2.15 ГБ

В этой теме нет новых непрочитанных сообщений. Снег в раю / Snow in Paradise (2014) BDRip 720p | L2

48 | 1

2.28 ГБ

В этой теме нет новых непрочитанных сообщений. Потерянный рай / Escobar: Paradise Lost (2014) BDRip 720p | L2

51 | 3

9.01 ГБ

В этой теме нет новых непрочитанных сообщений. Потерянный рай / Escobar: Paradise Lost (2014) BDRip 720p | P

165 | 23

7.54 ГБ




Вы не можете начинать темы
Вы не можете отвечать на сообщения
Вы не можете редактировать свои сообщения
Вы не можете удалять свои сообщения
Вы не можете добавлять вложения

Перейти:  
Для Мосгорсуда, Роскомнадзора и рекламодателей: mosgorsud-torrent[собачка]yandex.ru
Настройки
ppkBB3cker v.2 © 2008-2014 @ PPK
[ Time : 0.990s | 14 Queries | GZIP : Off ]
CGP [Extreme] output time : 0.00057s | 0 Queries | GZIP : Off

Торрент трекер RUTOR.IN, Не можете зайти на rutor.org? Какой новый адрес рутор? Какое зеркало рутор? Не работает rutor.org и зеркала? Тогда наш торрент специально для вас. Rutor.in неофициальное зеркало rutor. В случае если у Вас заблокирован rutor или вдруг Вы не можете на него зайти, то Вы без труда сможете скачать бесплатно и без рекламы последние новинки кино, игр, сериалов и прочего у нас, на Rutor.in. Не нужно использовать прокси, чтобы зайти на рутор, достаточно воспользоваться нашим ресурсом. Все новые фильмы, игры, сериалы, книги и музыка за 2013 и 2014 годы через торрент бесплатно. Скачивайте фильмы в хорошем качестве, игры для пк, xbox, playstation без регистрации. У нас вы найдете новые Зарубежные сериалы и Русские сериалы 2013, 2014, 2015 годов. Оставайтесь с нами, качайте любимые фильмы, игры, сериалы, книги и музыку.