img image001 image001 image001 image001 image001 image001 image001 image001 image001 image001 image001 image001 image001 image001 image001

Planets Sun Sun Sun
Статистика раздачи
Автор: Nickolas3434 | Размер: 3.11 ГБ | Добавлен: 13 янв 2015
Раздают: 176    Качают: 28
Скачать торрент
Скачать торрент
Описание торрента

СообщениеДобавлено: 13 янв 2015 


Информация о фильме
Название: И всё-таки мир прекрасен
Оригинальное название: Soredemo Sekai wa Utsukushii

Год выхода: 2014
Жанр: фэнтези, мелодрама, приключения
Режиссер: Хадзимэ Камэгаки
В главных ролях: Рена Маеда, Симадзаки Нобунага, Томокадзу Сугита...

О фильме:
Ники, четвертая принцесса герцогства Дождя и та, кто владеет уникальной силой вызывать дождь, едет в Солнечное королевство, дабы жениться на Ливиусе, короле Солнца, против своего собственного желания. Она вскоре обнаруживает, что король, который смог завоевать весь мир за первые три года своего правления, все еще дитя! Более того, он еще и потребовал по банальной причине, чтобы Ники призвала ему дождь?!

Страна: Япония
Студия: Studio Pierrot
Продолжительность: (12 эп.), 25 мин.
Перевод: русский от FooBoo (двухголосый от AniDUB)
Файл
Качество: BDRip
Тип релиза: Без хардсаба
Формат видео: MP4
Кодек: AVC - [8bit]
Видео: 1280x720, ~1300 Кбит/сек, 23,976 кадра/сек
Аудио: AC3, 192 Кбит/сек, 48 КГц, 2CH, STEREO Язык Русский (Озвучивание: двухголосое (муж./жен.) Inspector_Gadjet & Kiara_Laine) ;

Код:
General
Complete name                            : E:Anime BDSoredemo Sekai wa UtsukushiiSoredemo Sekai wa Utsukushii - 01.mp4
Format                                   : MPEG-4
Format profile                           : Base Media
Codec ID                                 : isom
File size                                : 251 MiB
Duration                                 : 22mn 51s
Overall bit rate                         : 1 537 Kbps
Movie name                               : Soredemo Sekai wa Utsukushii - 01 (BD 1280x720 AVC AAC)
Encoded date                             : UTC 2015-01-11 04:56:04
Tagged date                              : UTC 2015-01-11 04:56:32
Writing application                      : MkvToMp4 [www.mkvtomp4.ru] version: 0.224 (x64)
hdvd                                     : 1
stik                                     : 9
Video
ID                                       : 1
Format                                   : AVC
Format/Info                              : Advanced Video Codec
Format profile                           : High@L4.0
Format settings, CABAC                   : Yes
Format settings, ReFrames                : 6 frames
Codec ID                                 : avc1
Codec ID/Info                            : Advanced Video Coding
Duration                                 : 22mn 51s
Bit rate                                 : 1 340 Kbps
Maximum bit rate                         : 6 948 Kbps
Width                                    : 1 280 pixels
Height                                   : 720 pixels
Display aspect ratio                     : 16:9
Frame rate mode                          : Constant
Frame rate                               : 23.976 fps
Color space                              : YUV
Chroma subsampling                       : 4:2:0
Bit depth                                : 8 bits
Scan type                                : Progressive
Bits/(Pixel*Frame)                       : 0.061
Stream size                              : 219 MiB (87%)
Title                                    : Video
Language                                 : English
Encoded date                             : UTC 2015-01-11 04:56:04
Tagged date                              : UTC 2015-01-11 04:56:27
Audio
ID                                       : 2
Format                                   : AC-3
Format/Info                              : Audio Coding 3
Mode extension                           : CM (complete main)
Codec ID                                 : ac-3
Duration                                 : 22mn 51s
Bit rate mode                            : Constant
Bit rate                                 : 192 Kbps
Channel(s)                               : 2 channels
Channel positions                        : Front: L R
Sampling rate                            : 48.0 KHz
Bit depth                                : 16 bits
Compression mode                         : Lossy
Stream size                              : 31.4 MiB (12%)
Language                                 : English
Encoded date                             : UTC 2015-01-11 04:56:10
Tagged date                              : UTC 2015-01-11 04:56:27



   Похожие торренты   Торрент   Размер 
В этой теме нет новых непрочитанных сообщений. И всё-таки мир прекрасен / Soredemo Sekai wa Utsukushii [S01] (2014) BDRip-AVC | L2

15 | 0

2.27 ГБ

В этой теме нет новых непрочитанных сообщений. И всё-таки мир прекрасен / Soredemo Sekai wa Utsukushii [TV] [01-02 из 12] (2014) HDTVRip 720p | AniFilm

71 | 25

671.99 МБ

В этой теме нет новых непрочитанных сообщений. И всё-таки мир прекрасен / Soredemo Sekai wa Utsukushii [01-07 из 12] (2014) HDTVRip 720p | AniFilm

20 | 8

2.31 ГБ

В этой теме нет новых непрочитанных сообщений. И всё-таки мир прекрасен / Soredemo Sekai wa Utsukushii [TV] [01 из 12] (2014) HDTVRip 720p | AniFilm

63 | 24

260.04 МБ

В этой теме нет новых непрочитанных сообщений. И всё-таки мир прекрасен / Soredemo Sekai wa Utsukushii [01-06 из 12] (2014) HDTVRip 720p | AniFilm

56 | 15

1.98 ГБ

В этой теме нет новых непрочитанных сообщений. И всё-таки мир прекрасен / Soredemo Sekai wa Utsukushii [01-09 из 12] (2014) HDTVRip 720p | AniFilm

69 | 16

2.97 ГБ

В этой теме нет новых непрочитанных сообщений. И всё-таки мир прекрасен / Soredemo Sekai wa Utsukushii [01-12 из 12] (2014) HDTVRip 720p | AniFilm

133 | 34

3.96 ГБ




Вы не можете начинать темы
Вы не можете отвечать на сообщения
Вы не можете редактировать свои сообщения
Вы не можете удалять свои сообщения
Вы не можете добавлять вложения

Перейти:  
Для Мосгорсуда, Роскомнадзора и рекламодателей: mosgorsud-torrent[собачка]yandex.ru
 Вход
ppkBB3cker v.2 © 2008-2014 @ PPK
[ Time : 0.039s | 16 Queries | GZIP : Off ]

Торрент трекер RUTOR.IN, Не можете зайти на rutor.org? Какой новый адрес рутор? Какое зеркало рутор? Не работает rutor.org и зеркала? Тогда наш торрент специально для вас. Rutor.in неофициальное зеркало rutor. В случае если у Вас заблокирован rutor или вдруг Вы не можете на него зайти, то Вы без труда сможете скачать бесплатно и без рекламы последние новинки кино, игр, сериалов и прочего у нас, на Rutor.in. Не нужно использовать прокси, чтобы зайти на рутор, достаточно воспользоваться нашим ресурсом. Все новые фильмы, игры, сериалы, книги и музыка за 2013 и 2014 годы через торрент бесплатно. Скачивайте фильмы в хорошем качестве, игры для пк, xbox, playstation без регистрации. У нас вы найдете новые Зарубежные сериалы и Русские сериалы 2013, 2014, 2015 годов. Оставайтесь с нами, качайте любимые фильмы, игры, сериалы, книги и музыку.
cron